.
Авторизация | Регистрация
bitok.xyz
» » Тайны следствия. Прошлый век (2019) WEBRip (сезон 1, серии 1-4 из 4) торрент скачать бесплатно


    Тайны следствия. Прошлый век (2019) WEBRip (сезон 1, серии 1-4 из 4) торрент скачать бесплатно

    Дата: 1-01-2020, 05:00 | .torrent скачали: 0

    Тайны следствия. Прошлый век (2019) WEBRip (сезон 1, серии 1-4 из 4)Производство: Россия/Прогресс-Плюс
    Жанр: детектив
    Режиссер: Жанна Коханова

    Актеры
    Анна Ковальчук, Вячеслав Захаров, Игорь Николаев, Александр Новиков, Андрей Шарков, Игорь Григорьев, Олег Алмазов, Алла Довлатова, Александр Чевычелов, Александр Шпилько и др.

    Описание

    XIX век. Конец царствования Александра III. Эпоха романтики, благородства, а также… таинственных и изощрённых преступлений. Светская дама, супруга статского советника и замминистра юстиции Мария Сергеевна Перевалова внезапно оказывается в центре криминальной истории. Казалось бы, незначительное происшествие — разбитое окно во время званого ужина в её особняке приводит к цепи трагических и скандальных событий — загадочным убийствам и исчезновениям. Следы ведут к преступлению государственного масштаба!

    Дата российской премьеры: 30 декабря 2019
    Релиз от: Алехаndr
    Продолжительность: ~00: 50: 00 серия
    Качество видео: WEBRip
    Видео: Xvid, 720x400 (16: 9), ~1500 Kbps
    Аудио: AC3, 2 ch, 192 Kbps
    Общее
    Полное имя : D: Тайны следствия. Прошлый век (2019).Серии 1-4.by.Алехаndr.avi
    Формат : AVI
    Формат/Информация : Audio Video Interleave
    Профиль формата : OpenDML
    Размер файла : 2, 43 Гбайт
    Продолжительность : 3 ч. 24 м.
    Общий поток : 1701 Кбит/сек
    Программа кодирования : Lavf58.29.100
    Видео
    Идентификатор : 0
    Формат : xvid
    Идентификатор кодека : xvid
    Продолжительность : 3 ч. 24 м.
    Битрейт : 1498 Кбит/сек
    Ширина : 720 пикселей
    Высота : 400 пикселей
    Соотношение сторон : 16: 9
    Частота кадров : 25, 000 кадров/сек
    Тип развёртки : Прогрессивная
    Бит/(Пиксели*Кадры) : 0.208
    Размер потока : 2, 14 Гбайт (88%)
    Аудио
    Идентификатор : 1
    Формат : AC-3
    Формат/Информация : Audio Coding 3
    Коммерческое название : Dolby Digital
    Идентификатор кодека : 2000
    Продолжительность : 3 ч. 24 м.
    Вид битрейта : Постоянный
    Битрейт : 192 Кбит/сек
    Каналы : 2 канала
    ChannelLayout : L R
    Частота : 48, 0 КГц
    Частота кадров : 31, 250 кадров/сек (1536 SPF)
    Битовая глубина : 16 бит
    Метод сжатия : С потерями
    Размер потока : 281 Мбайт (11%)
    Выравнивание : Соединение по промежуткам
    Продолжительность промежутка : 32 мс. (0, 80 видеокадр)
    ServiceKind/String : Complete Main

    Скриншоты для ознакомления



    Все одноименные релизы в Клубе
    Время раздачи: 24/7 (круглосуточно) (до появления первых 3-5 скачавших)

    Онлайн видео Тайны следствия. Прошлый век (2019) WEBRip (сезон любимого сериала 1, серии 1



    Тайны следствия. Прошлый век (2019) WEBRip (сезон 1, серии 1-4 из 4)
    Рейтинг →
     (голосов: 1, оценка 4/5, голосовать можно 1 раз )

    Другие торренты по теме:

  • Тайны следствия (2014) HDTV [H.264 / 1080i-LQ] (сезон 14, серия 1-8 из 16) (обновляемая) скачать через торрент бесплатно
  • Тайны следствия (2014) SATRip (сезон 14, серии 1-8 из 16) (обновляемая) скачать через торрент бесплатно
  • Тайны следствия (2015) SATRip (сезон 15, серии 1-3 из 12) (обновляемая) скачать через торрент бесплатно
  • Тайны следствия (2015) SATRip [H.264] (сезон 15, серии 1-3 из 12) (обновляемая) скачать через торрент бесплатно
  • Тайны следствия (2015) HDTV [H.264 / 1080i] (сезон 15, серии 1-16 из 16) скачать через торрент бесплатно
  • Тайны следствия (2002) WEBRip (сезон 2, серии 1-12 из 12)
  • Тайны следствия (2001) WEBRip (сезон 1, серии 1-16 из 16)
  • Тайны следствия (2004) WEBRip (сезон 4, серии 1-12 из 12)


    • Комментарии (0):

      Информация

      Информация

        Посетители, находящиеся в группе Гости, не могут оставлять комментарии в данной новости.

        ↓ Меню




        ↓ Опрос

        Вы добавили сайт в закладки?
        Да
        Нет


        Популярное