.
Авторизация | Регистрация
bitok.xyz
» » Преступник / Criminal: UK (2019) WEBRip (сезон 1, серии 1 из 3) LostFilm (обновляемая) торрент скачать бесплатно


    Преступник / Criminal: UK (2019) WEBRip (сезон 1, серии 1 из 3) LostFilm (обновляемая) торрент скачать бесплатно

    Дата: 1-01-2020, 05:00 | .torrent скачали: 0

    Преступник / Criminal: UK (2019) WEBRip (сезон 1, серии 1 из 3) LostFilm (обновляемая)Производство: Великобритания, Франция, Германия, Испания/Idiotlamp Productions
    Жанр: детектив, криминал
    Режиссер: Джим Филд Смит

    Актеры
    Кэтерин Келли, Ли Инглби, Марк Стэнли, Роченда Сандалл, Николас Пиннок, Шубхам Сараф, Лолита Чакрабарти, Кевин Элдон, Марк Куортли, Дэвид Теннант и др.

    Описание

    Сразу нужно оговориться, что Преступник — необычный сериал. Место действие здесь крайне ограничено. Все страсти кипят в полицейской комнате для допросов и соседнем помещении, откуда другие сыщики наблюдают за разговором через специальное стекло. Таким образом повествование сводится не столько к каким-то событиям, сколько к психологическому поединку между полицейским и подозреваемым. Сами создатели описывают это как своеобразную игру в кошки-мышки.

    Дата мировой премьеры: 20 сентября 2019
    Продолжительность: ~00: 43: 00 серия
    Качество видео: WEBRip
    Перевод: Многоголосый, профессиональный -LostFilm
    Субтитры: русские, английские
    Видео: XviD, 720x400 (16: 9), ~1467 kbps
    Аудио 1: MP3, 2 ch, 128 kbps — русский
    Аудио 2: MP3, 2 ch, 128 kbps — английский
    Общее
    Полное имя : D: Преступник (сезон любимого сериала 1) Criminal UK (2019) WEBRip - LostFilmCriminal.United.Kingdom.S01E01.WEBRip.Rus.Eng.DV.LostFilm.avi
    Формат : AVI
    Формат/Информация : Audio Video Interleave
    Размер файла : 540 Мбайт
    Продолжительность : 43 м. 28 с.
    Общий поток : 1737 Кбит/сек
    Название фильма : Criminal.United.Kingdom.S01E01.WEBRip.Rus.Eng.DV.LostFilm/NNM-Club
    Программа кодирования : VirtualDubModRus 1.5.10.2 (build 2542/release)
    Библиотека кодирования : VirtualDubMod build 2542/release
    Видео
    Идентификатор : 0
    Формат : MPEG-4 Visual
    Профиль формата : Advanced Simple@L5
    Настройки формата : BVOP2
    Параметр BVOP формата : 2
    Параметр QPel формата : Нет
    Параметр GMC формата : Без точки перехода
    Параметр матрицы формата : Default (H.263)
    Идентификатор кодека : XVID
    Идентификатор кодека/Подсказка : XviD
    Продолжительность : 43 м. 28 с.
    Битрейт : 1467 Кбит/сек
    Ширина : 720 пикселей
    Высота : 400 пикселей
    Соотношение сторон : 16: 9
    Частота кадров : 25, 000 кадров/сек
    Цветовое пространство : YUV
    Субдискретизация насыщенности : 4: 2: 0
    Битовая глубина : 8 бит
    Тип развёртки : Прогрессивная
    Метод сжатия : С потерями
    Бит/(Пиксели*Кадры) : 0.204
    Размер потока : 456 Мбайт (84%)
    Заголовок : Rip from DriverV for NNM-Club
    Библиотека кодирования : XviD 64
    Аудио #1
    Идентификатор : 1
    Формат : MPEG Audio
    Версия формата : Version 1
    Профиль формата : Layer 3
    Настройки формата : Joint stereo/MS Stereo
    Идентификатор кодека : 55
    Идентификатор кодека/Подсказка : MP3
    Продолжительность : 43 м. 28 с.
    Вид битрейта : Постоянный
    Битрейт : 128 Кбит/сек
    Каналы : 2 канала
    Частота : 48, 0 КГц
    Метод сжатия : С потерями
    Размер потока : 39, 8 Мбайт (7%)
    Выравнивание : Соединение по промежуткам
    Продолжительность промежутка : 40 мс. (1, 00 видеокадр)
    Время предзагрузки промежутка : 504 мс.
    Аудио #2
    Идентификатор : 2
    Формат : MPEG Audio
    Версия формата : Version 1
    Профиль формата : Layer 3
    Настройки формата : Joint stereo/MS Stereo
    Идентификатор кодека : 55
    Идентификатор кодека/Подсказка : MP3
    Продолжительность : 43 м. 28 с.
    Вид битрейта : Постоянный
    Битрейт : 128 Кбит/сек
    Каналы : 2 канала
    Частота : 48, 0 КГц
    Метод сжатия : С потерями
    Размер потока : 39, 8 Мбайт (7%)
    Выравнивание : Соединение по промежуткам
    Продолжительность промежутка : 40 мс. (1, 00 видеокадр)
    Время предзагрузки промежутка : 504 мс.


    Онлайн видео Преступник



    Преступник/Criminal: UK (2019) WEBRip (сезон 1, серии 1 из 3) LostFilm (обновляемая)
    Рейтинг →
     (голосов: 1, оценка 3/5, голосовать можно 1 раз )

    Другие торренты по теме:

  • Мыслить как преступник / Criminal Minds (2014) WEB-DL [H.264 / 1080p-LQ] (сезон 10, серии 1-4 из 24) Fox (обновляемая)
  • Мыслить как преступник / Criminal Minds (2015) WEB-DLRip (сезон 11, серии 1 из ) Fox (обновляемая) скачать через торрент бесплатно
  • Преступник / Criminal (2016) CAMRip
  • Преступник / Criminal (2016) CamRip [Proper]
  • Преступник / Criminal (2016)
  • Преступник / Criminal (2016) TC [Звук CamRip]
  • Преступник / Criminal (2016) TC [H.264 / 1080p-LQ] [Звук CAMRip]
  • Преступник / Criminal (2016) TC [H.264 / 720p-LQ] [Line]


    • Комментарии (0):

      Информация

      Информация

        Посетители, находящиеся в группе Гости, не могут оставлять комментарии в данной новости.

        ↓ Меню




        ↓ Опрос

        Вы добавили сайт в закладки?
        Да
        Нет


        Популярное