.
Авторизация | Регистрация
bitok.xyz
» » Тёмные начала / His Dark Materials (2019) [H.264 / 720p-LQ] (сезон 1, серия 1-8 из 8) Amedia, Lostfilm, HDRezka, NewStudio, Jaskier торрент скачать бесплатно

    Тёмные начала / His Dark Materials (2019) [H.264 / 720p-LQ] (сезон 1, серия 1-8 из 8) Amedia, Lostfilm, HDRezka, NewStudio, Jaskier торрент скачать бесплатно

    Дата: 1-01-2020, 05:00 | .torrent скачали: 0

    Тёмные начала / His Dark Materials (2019) [H.264 / 720p-LQ] (сезон 1, серия 1-8 из 8) Amedia, Lostfilm, HDRezka, NewStudio, JaskierПроизводство: Великобритания, США, Bad Wolf, British Broadcasting Corporation (BBC), New Line Cinema
    Жанр: фэнтези, драма, приключения, семейный, экранизация
    Режиссер: Джейми Чайлдс, Отто Батхёрст, Том Хупер

    Актеры
    Дафни Кин, Джеймс МакЭвой, Рут Уилсон, Лин-Мануэль Миранда, Кларк Питерс, Иэн Гелдер, Уилл Кин, Эрион Бакаре, Джорджина Кэмпбелл, Энн-Мэри Дафф

    Описание

    Лира Белаква живёт в мире, где существуют ведьмы и бронированные медведи, а у людей есть деймоны - существа, составляющие неотъемлемую часть их личностей. Опекун девочки, исследователь лорд Азриэл, находит способ передвигаться между параллельными землями, благодаря чему Лира знакомится с мальчиком Уиллом, который живёт в мире, лишённом магии.

    Дата мировой премьеры: 3 ноября 2019
    Дата премьеры в России: 5 ноября 2019
    Продолжительность: 00: 55: 00 серия
    Качество видео: WEB-DL
    Перевод: Дублированный, профессиональный многоголосый
    Субтитры: русские (full, forced), английские (SDH)
    Видео: AVC/H.264, 1280x720, ~5425 Kbps
    Аудио#1: AC3, 6 ch, 640 Kbps, Русский (Dub)
    Аудио#2: AC3, 6 ch, 640 Kbps, Русский (Lostfilm)
    Аудио#3: AC3, 6 ch, 640 Kbps, Русский (HDRezka)
    Аудио#4: AC3, 6 ch, 384 Kbps, Русский (NewStudio)
    Аудио#5: AC3, 6 ch, 384 Kbps, Русский (Jaskier)
    Аудио#6: AC3, 6 ch, 640 Kbps, Английский
    Общее
    Уникальный идентификатор : 226538979337907498075678147369919572511 (0xAA6DD204EEFC010AA401490B51F7EA1F)
    Полное имя : E: Тёмные начала. Сериал. 2019.(WEB-DL 720p)His.Dark.Materials.s01e01. Иорданский колледж.mkv
    Формат : Matroska
    Версия формата : Version 2
    Размер файла : 3, 41 Гбайт
    Продолжительность : 54 м. 38 с.
    Общий поток : 8933 Кбит/сек
    Название фильма : Lyra\'s Jordan
    Дата кодирования : UTC 2019-11-07 17: 28: 37
    Программа кодирования : mkvmerge v6.9.1 (\'Blue Panther\') 32bit built on Apr 18 2014 18: 15: 44
    Библиотека кодирования : libebml v1.3.0 + libmatroska v1.4.1
    Видео
    Идентификатор : 1
    Формат : AVC
    Формат/Информация : Advanced Video Codec
    Профиль формата : High@L3.1
    Настройки формата : CABAC/4 Ref Frames
    Параметр CABAC формата : Да
    Параметр RefFrames формата : 4 кадра
    Идентификатор кодека : V_MPEG4/ISO/AVC
    Продолжительность : 54 м. 38 с.
    Вид битрейта : Постоянный
    Битрейт : 5427 Кбит/сек
    Номинальный битрейт : 6000 Кбит/сек
    Ширина : 1280 пикселей
    Высота : 720 пикселей
    Соотношение сторон : 16: 9
    Режим частоты кадров : Постоянный
    Частота кадров : 25, 000 кадров/сек
    Цветовое пространство : YUV
    Субдискретизация насыщенности : 4: 2: 0
    Битовая глубина : 8 бит
    Тип развёртки : Прогрессивная
    Бит/(Пиксели*Кадры) : 0.236
    Размер потока : 2, 07 Гбайт (61%)
    Язык : English
    Default : Да
    Forced : Нет
    Цветовой диапазон : Limited
    Основные цвета : BT.709
    Характеристики трансфера : BT.709
    Коэффициенты матрицы : BT.709
    Аудио #1
    Идентификатор : 2
    Формат : AC-3
    Формат/Информация : Audio Coding 3
    Коммерческое название : Dolby Digital
    Идентификатор кодека : A_AC3
    Продолжительность : 54 м. 38 с.
    Вид битрейта : Постоянный
    Битрейт : 640 Кбит/сек
    Каналы : 6 каналов
    ChannelLayout : L R C LFE Ls Rs
    Частота : 48, 0 КГц
    Частота кадров : 31, 250 кадров/сек (1536 SPF)
    Метод сжатия : С потерями
    Размер потока : 250 Мбайт (7%)
    Заголовок : Dub
    Язык : Russian
    ServiceKind/String : Complete Main
    Default : Да
    Forced : Нет
    Аудио #2
    Идентификатор : 3
    Формат : AC-3
    Формат/Информация : Audio Coding 3
    Коммерческое название : Dolby Digital
    Идентификатор кодека : A_AC3
    Продолжительность : 54 м. 38 с.
    Вид битрейта : Постоянный
    Битрейт : 640 Кбит/сек
    Каналы : 6 каналов
    ChannelLayout : L R C LFE Ls Rs
    Частота : 48, 0 КГц
    Частота кадров : 31, 250 кадров/сек (1536 SPF)
    Метод сжатия : С потерями
    Размер потока : 250 Мбайт (7%)
    Заголовок : Lostfilm
    Язык : Russian
    ServiceKind/String : Complete Main
    Default : Нет
    Forced : Нет
    Аудио #3
    Идентификатор : 4
    Формат : AC-3
    Формат/Информация : Audio Coding 3
    Коммерческое название : Dolby Digital
    Идентификатор кодека : A_AC3
    Продолжительность : 54 м. 38 с.
    Вид битрейта : Постоянный
    Битрейт : 640 Кбит/сек
    Каналы : 6 каналов
    ChannelLayout : L R C LFE Ls Rs
    Частота : 48, 0 КГц
    Частота кадров : 31, 250 кадров/сек (1536 SPF)
    Метод сжатия : С потерями
    Размер потока : 250 Мбайт (7%)
    Заголовок : HDRezka Studio
    Язык : Russian
    ServiceKind/String : Complete Main
    Default : Нет
    Forced : Нет
    Аудио #4
    Идентификатор : 5
    Формат : AC-3
    Формат/Информация : Audio Coding 3
    Коммерческое название : Dolby Digital
    Идентификатор кодека : A_AC3
    Продолжительность : 54 м. 38 с.
    Вид битрейта : Постоянный
    Битрейт : 384 Кбит/сек
    Каналы : 6 каналов
    ChannelLayout : L R C LFE Ls Rs
    Частота : 48, 0 КГц
    Частота кадров : 31, 250 кадров/сек (1536 SPF)
    Метод сжатия : С потерями
    Размер потока : 150 Мбайт (4%)
    Заголовок : NewStudio
    Язык : Russian
    ServiceKind/String : Complete Main
    Default : Нет
    Forced : Нет
    Аудио #5
    Идентификатор : 6
    Формат : AC-3
    Формат/Информация : Audio Coding 3
    Коммерческое название : Dolby Digital
    Идентификатор кодека : A_AC3
    Продолжительность : 54 м. 38 с.
    Вид битрейта : Постоянный
    Битрейт : 384 Кбит/сек
    Каналы : 6 каналов
    ChannelLayout : L R C LFE Ls Rs
    Частота : 48, 0 КГц
    Частота кадров : 31, 250 кадров/сек (1536 SPF)
    Метод сжатия : С потерями
    Размер потока : 150 Мбайт (4%)
    Заголовок : Jaskier
    Язык : Russian
    ServiceKind/String : Complete Main
    Default : Нет
    Forced : Нет
    Аудио #6
    Идентификатор : 7
    Формат : AC-3
    Формат/Информация : Audio Coding 3
    Коммерческое название : Dolby Digital
    Идентификатор кодека : A_AC3
    Продолжительность : 54 м. 38 с.
    Вид битрейта : Постоянный
    Битрейт : 640 Кбит/сек
    Каналы : 6 каналов
    ChannelLayout : L R C LFE Ls Rs
    Частота : 48, 0 КГц
    Частота кадров : 31, 250 кадров/сек (1536 SPF)
    Метод сжатия : С потерями
    Размер потока : 250 Мбайт (7%)
    Язык : English
    ServiceKind/String : Complete Main
    Default : Нет
    Forced : Нет
    Текст #1
    Идентификатор : 8
    Формат : UTF-8
    Идентификатор кодека : S_TEXT/UTF8
    Идентификатор кодека/Информация : UTF-8 Plain Text
    Заголовок : Forced
    Язык : Russian
    Default : Да
    Forced : Да
    Текст #2
    Идентификатор : 9
    Формат : UTF-8
    Идентификатор кодека : S_TEXT/UTF8
    Идентификатор кодека/Информация : UTF-8 Plain Text
    Заголовок : Full
    Язык : Russian
    Default : Нет
    Forced : Нет
    Текст #3
    Идентификатор : 10
    Формат : UTF-8
    Идентификатор кодека : S_TEXT/UTF8
    Идентификатор кодека/Информация : UTF-8 Plain Text
    Заголовок : SDH
    Язык : English
    Default : Нет
    Forced : Нет

    Скриншоты для ознакомления




    Все одноименные релизы в Клубе
    Время раздачи: до появления первых 3-5 скачавших (до появления первых 3-5 скачавших)

    Онлайн видео Тёмные начала


    Прямая ссылка скачивания через uTorrent


    Тёмные начала/His Dark Materials (2019) [H.264/720p-LQ] (сезон 1, серия 1-8 из 8) Amedia, Lostfilm, HDRezka, NewStudio, Jaskier
    Рейтинг →
     (голосов: 1, оценка 4/5, голосовать можно 1 раз )

    Другие торренты по теме:

  • Эдгар Аллан По и др. | Тёмные аллеи 2.0: Тёмные звёзды. Антология мистики и хоррора (2015) [MP3]
  • De.S., Trux | Тёмные культы. Проверка на вирусы сознания (2012) [PDF]
  • Тёмные тайны / Dark Places (2015) WEB-DL [H.264 / 720p-LQ] [EN / EN Sub] скачать через торрент бесплатно
  • Тёмные тайны / Dark Places (2015) WEB-DL [H.264 / 1080p-LQ] [EN / EN Sub] скачать через торрент бесплатно
  • Тёмные тайны / Dark Places (2015) WEB-DL [H.264 / 720p-LQ] [VO] скачать через торрент бесплатно
  • Тёмные тайны / Dark Places (2015) WEB-DL [H.264 / 1080p-LQ] [VO] скачать через торрент бесплатно
  • Тёмные силы / The Dark (2005) [H.264 / 720p] HDTVRip [Alternate Cut] скачать через торрент бесплатно
  • Мифика: Тёмные времена / Mythica: The Darkspore (2015) HDRip скачать через торрент бесплатно


    • Комментарии (0):

      Информация

      Информация

        Посетители, находящиеся в группе Гости, не могут оставлять комментарии в данной новости.

        ↓ Меню




        ↓ Опрос

        Вы добавили сайт в закладки?
        Да
        Нет


        Популярное