.
Авторизация | Регистрация
bitok.xyz
Торрент скачать бесплатно Фильмы торрент скачать Ford против Ferrari / Ford v Ferrari (2019) WEBRip [H.264] [UKR] [Line] торрент скачать бесплатно


    Ford против Ferrari / Ford v Ferrari (2019) WEBRip [H.264] [UKR] [Line] торрент скачать бесплатно

    Дата: 3-01-2020, 05:00 | .torrent скачали: 0

    Ford против Ferrari / Ford v Ferrari (2019) WEBRip [H.264] [UKR] [Line]Производство: США, Франция, 20th Century Fox Film Corporation, ...
    Жанр: Биография, Спорт, Драма, Боевик
    Режиссер: Джеймс Мэнголд
    Продюсер: Дженно Топпинг, Dani Bernfeld, Питер Чернин

    Актеры
    Кристиан Бэйл, Мэтт Дэймон, Катрина Балф, Трэйси Леттс, Джон Бернтал, Ноа Джуп, Джош Лукас, Ремо Джироне, Рэй Маккиннон, Джей Джей Филд

    Описание

    Фильм рассказывает о взаимоотношениях американского автомобильного конструктора Кэрролла Шелби и отважного британского гонщика Кена Майлза, которые вместе бросили вызов корпорациям и собственным демонам, чтобы создать абсолютно новый спорткар, который смог конкурировать с Ferrari на чемпионате мира, прошедшем во Франции в середине 1960-х.

    Возраст: 16+ (зрителям, достигшим 16 лет)
    Рейтинг MPAA: PG-13 (детям до 13 лет просмотр нежелателен)
    Дата мировой премьеры: 30 августа 2019
    Дата российской премьеры: 14 ноября 2019, Двадцатый Век Фокс СНГ

    Продолжительность: 02: 32: 33
    Качество видео: WEBRip
    Перевод : Отсутствует
    Язык озвучки : Украинский
    Субтитры: Отсутствуют
    Видео: AVC/H.264, 720x300, 1000 Kbps
    Аудио : AC3, 2 ch, 192 Kbps | Украинский дубляж (Line)General
    Unique ID : 244590683916348971043631498830319394817 (0xB80273C52A818411B04BEFC163EF2001)
    Complete name : Ford v Ferrari.(2019).WEBRip.AVC.UKR.mkv
    Format : Matroska
    Format version : Version 4
    File size : 1.27 GiB
    Duration : 2 h 32 min
    Overall bit rate : 1 194 kb/s
    Encoded date : UTC 2020-01-02 08: 35: 19
    Writing application : mkvmerge v8.3.0 (\'Over the Horizon\') 64bit
    Writing library : libebml v1.3.1 + libmatroska v1.4.2
    Video
    ID : 1
    Format : AVC
    Format/Info : Advanced Video Codec
    Format profile : High@L3.1
    Format settings : CABAC/5 Ref Frames
    Format settings, CABAC : Yes
    Format settings, ReFrames : 5 frames
    Codec ID : V_MPEG4/ISO/AVC
    Duration : 2 h 32 min
    Bit rate : 1 000 kb/s
    Width : 720 pixels
    Height : 300 pixels
    Display aspect ratio : 2.40: 1
    Frame rate mode : Constant
    Frame rate : 23.976 (24000/1001) FPS
    Color space : YUV
    Chroma subsampling : 4: 2: 0
    Bit depth : 8 bits
    Scan type : Progressive
    Bits/(Pixel*Frame) : 0.193
    Stream size : 1.07 GiB (84%)
    Writing library : x264 core 152 r2851M ba24899
    Encoding settings : cabac=1/ref=5/deblock=1: -1: -1/analyse=0x3: 0x113/me=hex/subme=8/psy=1/psy_rd=1.00: 0.15/mixed_ref=1/me_range=16/chroma_me=1/trellis=2/8x8dct=1/cqm=0/deadzone=21, 11/fast_pskip=1/chroma_qp_offset=-3/threads=24/lookahead_threads=2/sliced_threads=0/nr=0/decimate=1/interlaced=0/bluray_compat=0/constrained_intra=0/bframes=3/b_pyramid=2/b_adapt=1/b_bias=0/direct=3/weightb=1/open_gop=0/weightp=2/keyint=250/keyint_min=23/scenecut=40/intra_refresh=0/rc_lookahead=50/rc=2pass/mbtree=1/bitrate=1000/ratetol=1.0/qcomp=0.60/qpmin=0/qpmax=69/qpstep=4/cplxblur=20.0/qblur=0.5/ip_ratio=1.40/aq=1: 1.00
    Language : English
    Default : Yes
    Forced : No
    Audio
    ID : 2
    Format : AC-3
    Format/Info : Audio Coding 3
    Commercial name : Dolby Digital
    Codec ID : A_AC3
    Duration : 2 h 32 min
    Bit rate mode : Constant
    Bit rate : 192 kb/s
    Channel(s) : 2 channels
    Channel layout : L R
    Sampling rate : 48.0 kHz
    Frame rate : 31.250 FPS (1536 SPF)
    Bit depth : 16 bits
    Compression mode : Lossy
    Delay relative to video : -43 ms
    Stream size : 210 MiB (16%)
    Title : Line
    Language : Ukrainian
    Default : Yes
    Forced : No

    Скриншоты для ознакомления



    Все одноименные релизы в Клубе
    Время раздачи: 24/7 (до появления первых 3-5 скачавших)

    Онлайн видео Ford против Ferrari



    Ford против Ferrari / Ford v Ferrari (2019) WEBRip [H.264] [UKR] [Line] торрент скачать бесплатно
    Рейтинг →
     (голосов: 1, оценка 4/5, голосовать можно 1 раз )

    Другие торренты по теме:

  • Ford против Ferrari / Ford v Ferrari (2019) WEBRip [Line, AD]
  • Ford против Ferrari / Ford v Ferrari (2019) WEBRip [H.264 / 1080p-LQ] [Line, AD]
  • Ford против Ferrari / Ford v Ferrari (2019) WEBRip [H.264] [Line, AD]
  • Ford против Ferrari / Ford v Ferrari (2019) WEBRip [H.264 / 720p-LQ] [Line, AD]
  • Ford против Ferrari / Ford v Ferrari (2019) WEBRip [EN / RU, EN Sub]
  • Ford против Ferrari / Ford v Ferrari (2019) WEBRip [UKR] [Line]
  • Ford против Ferrari / Ford v Ferrari (2019) WEBRip [H.264] [EN / RU, EN Sub]
  • Ford против Ferrari / Ford v Ferrari (2019) WEBRip [H.264 / 1080p-LQ] [UKR, EN / EN Sub] [Line]


    • Комментарии (0):

      Информация

      Информация

        Посетители, находящиеся в группе Гости, не могут оставлять комментарии в данной новости.

        ↓ Меню




        ↓ Опрос

        Вы добавили сайт в закладки?
        Да
        Нет


        Популярное