.
Авторизация | Регистрация
bitok.xyz
Торрент скачать бесплатно Фильмы торрент скачать Приговор / Une intime conviction (2018) BDRip [H.264 / 1080p] торрент скачать бесплатно


    Приговор / Une intime conviction (2018) BDRip [H.264 / 1080p] торрент скачать бесплатно

    Дата: 14-01-2020, 05:00 | .torrent скачали: 1

    Приговор / Une intime conviction (2018) BDRip [H.264 / 1080p]Производство: Франция, Бельгия | Canal+ (fr), Ciné, Cinéventure 3, Delante Films
    Жанр: драма
    Режиссер: Антуан Рэймбо

    Актеры
    Марина Фоис, Оливье Гурме, Лоран Люка, Филипп Юшан, Жан Бенгиги, Франсуа Фенер, Франсуа Карон, Филипп Дормуа, Жан-Клод Легэ, Арман Буланжер

    Описание

    Фильм рассказывает событиях 2010 года — судебном процессе над Жаком Вигье, которого обвиняют в убийстве своей жены Сюзанны. Разбирательство о его предполагаемом преступлении идёт почти 10 лет. В то время как абсолютно все вокруг убеждены в том, что Жак виновен, его знакомая Нора пытается идти против толпы и ведёт своё собственное расследование, раскрывающее самые скрытые тайны жизни всех участников процесса. И всё оказывается намного запутаннее, чем может показаться вначале.

    Дата мировой премьеры: 21 октября 2018
    Цифровой релиз: 9 января 2020, Веста

    Продолжительность: 01: 50: 05
    Качество видео: BDRip
    Перевод: Дублированное (iTunes)
    Субтитры: отсутствуют
    Видео: AVC/H.264, 1920x804, ~9210 Kbps
    Аудио#1: AC3, 6 ch, 384 Kbps, Русский
    Аудио#2: AC3, 6 ch, 448 Kbps, Французский
    Общее
    Уникальный идентификатор : 198576974543934004036868219786856704326 (0x956488BE51025017B6F7ABEFD11F2946)
    Полное имя : D: Une intime conviction.BDRip1080p.mkv
    Формат : Matroska
    Версия формата : Version 4
    Размер файла : 7, 71 Гбайт
    Продолжительность : 1 ч. 50 м.
    Общий поток : 10, 0 Мбит/сек
    Дата кодирования : UTC 2020-01-11 15: 55: 25
    Программа кодирования : mkvmerge v9.5.0 (\'Quiet Fire\') 64bit
    Библиотека кодирования : libebml v1.3.4 + libmatroska v1.4.5
    Видео
    Идентификатор : 1
    Формат : AVC
    Формат/Информация : Advanced Video Codec
    Профиль формата : High@L4.1
    Настройки формата : CABAC/5 Ref Frames
    Параметр CABAC формата : Да
    Параметр RefFrames формата : 5 кадров
    Идентификатор кодека : V_MPEG4/ISO/AVC
    Продолжительность : 1 ч. 50 м.
    Битрейт : 9210 Кбит/сек
    Ширина : 1920 пикселей
    Высота : 804 пикселя
    Соотношение сторон : 2, 40: 1
    Режим частоты кадров : Постоянный
    Частота кадров : 24, 000 кадра/сек
    Цветовое пространство : YUV
    Субдискретизация насыщенности : 4: 2: 0
    Битовая глубина : 8 бит
    Тип развёртки : Прогрессивная
    Бит/(Пиксели*Кадры) : 0.249
    Размер потока : 7, 07 Гбайт (92%)
    Заголовок : Sisendrovich(R)
    Библиотека кодирования : x264 core 157 r2958 57baac4
    Настройки программы : cabac=1/ref=5/deblock=1: -1: -1/analyse=0x3: 0x133/me=tesa/subme=11/psy=1/psy_rd=1.00: 0.00/mixed_ref=1/me_range=32/chroma_me=1/trellis=2/8x8dct=1/cqm=0/deadzone=21, 11/fast_pskip=0/chroma_qp_offset=-2/threads=17/lookahead_threads=4/sliced_threads=0/nr=0/decimate=0/interlaced=0/bluray_compat=0/constrained_intra=0/bframes=12/b_pyramid=2/b_adapt=2/b_bias=0/direct=3/weightb=1/open_gop=0/weightp=2/keyint=240/keyint_min=23/scenecut=40/intra_refresh=0/rc_lookahead=120/rc=2pass/mbtree=0/bitrate=9210/ratetol=1.0/qcomp=0.70/qpmin=0/qpmax=69/qpstep=4/cplxblur=20.0/qblur=0.5/vbv_maxrate=50000/vbv_bufsize=62500/nal_hrd=none/filler=0/ip_ratio=1.40/pb_ratio=1.30/aq=3: 0.90
    Язык : French
    Default : Да
    Forced : Нет
    Цветовой диапазон : Limited
    Основные цвета : BT.709
    Характеристики трансфера : BT.709
    Коэффициенты матрицы : BT.709
    Аудио #1
    Идентификатор : 2
    Формат : AC-3
    Формат/Информация : Audio Coding 3
    Коммерческое название : Dolby Digital
    Идентификатор кодека : A_AC3
    Продолжительность : 1 ч. 50 м.
    Вид битрейта : Постоянный
    Битрейт : 384 Кбит/сек
    Каналы : 6 каналов
    ChannelLayout : L R C LFE Ls Rs
    Частота : 48, 0 КГц
    Частота кадров : 31, 250 кадров/сек (1536 SPF)
    Метод сжатия : С потерями
    Размер потока : 302 Мбайт (4%)
    Заголовок : rus
    Язык : Russian
    ServiceKind/String : Complete Main
    Default : Да
    Forced : Нет
    Аудио #2
    Идентификатор : 3
    Формат : AC-3
    Формат/Информация : Audio Coding 3
    Коммерческое название : Dolby Digital
    Идентификатор кодека : A_AC3
    Продолжительность : 1 ч. 50 м.
    Вид битрейта : Постоянный
    Битрейт : 448 Кбит/сек
    Каналы : 6 каналов
    ChannelLayout : L R C LFE Ls Rs
    Частота : 48, 0 КГц
    Частота кадров : 31, 250 кадров/сек (1536 SPF)
    Метод сжатия : С потерями
    Размер потока : 353 Мбайт (4%)
    Заголовок : fre
    Язык : French
    ServiceKind/String : Complete Main
    Default : Нет
    Forced : Нет
    Меню
    00: 00: 00.000 : : Chapter 1
    00: 04: 35.875 : : Chapter 2
    00: 14: 31.916 : : Chapter 3
    00: 24: 21.000 : : Chapter 4
    00: 29: 57.250 : : Chapter 5
    00: 36: 18.208 : : Chapter 6
    00: 51: 17.750 : : Chapter 7
    01: 05: 42.750 : : Chapter 8
    01: 12: 08.708 : : Chapter 9
    01: 24: 19.791 : : Chapter 10
    01: 30: 38.125 : : Chapter 11
    01: 42: 38.916 : : Chapter 12

    Скриншоты для ознакомления



    Все одноименные релизы в Клубе
    Время раздачи: 24/7 (до появления первых 3-5 скачавших)

    Онлайн видео Приговор



    Приговор / Une intime conviction (2018) BDRip [H.264 / 1080p] торрент скачать бесплатно
    Рейтинг →
     (голосов: 1, оценка 4/5, голосовать можно 1 раз )

    Другие торренты по теме:

  • Приговор / Une intime conviction (2018) BDRip [H.264 / 720p]


    • Комментарии (0):

      Информация

      Информация

        Посетители, находящиеся в группе Гости, не могут оставлять комментарии в данной новости.

        ↓ Меню




        ↓ Опрос

        Вы добавили сайт в закладки?
        Да
        Нет


        Популярное