.
Авторизация | Регистрация
bitok.xyz
Торрент скачать бесплатно Фильмы торрент скачать Гарриет / Harriet (2019) WEBRip [H.264 / 720p-LQ] [DVO] [AD] торрент скачать бесплатно


    Гарриет / Harriet (2019) WEBRip [H.264 / 720p-LQ] [DVO] [AD] торрент скачать бесплатно

    Дата: 14-01-2020, 05:00 | .torrent скачали: 0

    Гарриет / Harriet (2019) WEBRip [H.264 / 720p-LQ] [DVO] [AD]Производство: США, Martin Chase Productions, New Balloon, Perfect World Pictures
    Жанр: биография, история, драма
    Режиссер: Кейси Леммонс

    Актеры
    Синтиа Эриво, Лесли Одом мл., Джо Элвин, Кларк Питерс, Ванесса Белл Кэллоуэй, Омар Дж. Дорси, Генри Хантер Холл, Тим Гини, Ник Баста, Джозеф Андерсон

    Описание

    История Гарриет Табмен, бывшей рабыни и аболиционистки, которая посвятила жизнь борьбе против рабства. Гарриет регулярно совершала поездки на юг, откуда вывозила рабов, и приняла активное участие в деятельности подземной железной дороги, переправлявшей беглых рабов из южных штатов на Север или в Канаду.

    Рейтинг MPAA: PG-13 (детям до 13 лет просмотр нежелателен)
    Дата мировой премьеры: 10 сентября 2019
    Релиз от: LakeFilms
    Продолжительность: 02: 05: 36
    Качество видео: WEBRip
    Перевод: Двуголосый любительский (LakeFilms)
    Субтитры: отсутствуют
    Реклама: присутствуют видео, аудио, текстовые вставки рекламы
    Видео: AVC/H.264, 1280x534, ~3000 Kbps
    Аудио: AC3, 2 ch, 256 kbps
    General
    Unique ID : 286034544774655741672796099929567476029 (0xD7303FDEA58A286010D54F202E35393D)
    Complete name : E: Harriet.2019.720p.LakeFilms.mkv
    Format : Matroska
    Format version : Version 4/Version 2
    File size : 2.84 GiB
    Duration : 2 h 5 min
    Overall bit rate : 3 232 kb/s
    Writing application : XviD4PSP 8.0.96
    Writing library : Lavf58.29.100
    ErrorDetectionType : Per level 1
    ENCODING_INFO : MATROSKA, WEBM MKV Пользовательский
    Video
    ID : 1
    Format : AVC
    Format/Info : Advanced Video Codec
    Format profile : High@L3.1
    Format settings : CABAC/4 Ref Frames
    Format settings, CABAC : Yes
    Format settings, RefFrames : 4 frames
    Codec ID : V_MPEG4/ISO/AVC
    Duration : 2 h 5 min
    Bit rate : 3 000 kb/s
    Width : 1 280 pixels
    Height : 534 pixels
    Display aspect ratio : 2.40: 1
    Frame rate mode : Constant
    Frame rate : 29.970 (30000/1001) FPS
    Color space : YUV
    Chroma subsampling : 4: 2: 0
    Bit depth : 8 bits
    Scan type : Progressive
    Bits/(Pixel*Frame) : 0.146
    Stream size : 2.55 GiB (90%)
    Writing library : x264 core 157 r2958 57baac4
    Encoding settings : cabac=1/ref=1/deblock=1: -1: -1/analyse=0x3: 0x3/me=hex/subme=1/psy=1/psy_rd=1.00: 0.00/mixed_ref=0/me_range=16/chroma_me=1/trellis=0/8x8dct=1/cqm=0/deadzone=21, 11/fast_pskip=1/chroma_qp_offset=0/threads=5/lookahead_threads=1/sliced_threads=0/nr=0/decimate=1/interlaced=0/bluray_compat=0/constrained_intra=0/bframes=3/b_pyramid=2/b_adapt=1/b_bias=0/direct=1/weightb=1/open_gop=0/weightp=1/keyint=300/keyint_min=30/scenecut=40/intra_refresh=0/rc=abr/mbtree=0/bitrate=3000/ratetol=1.0/qcomp=0.60/qpmin=0/qpmax=69/qpstep=4/ip_ratio=1.40/pb_ratio=1.30/aq=1: 1.00
    Default : Yes
    Forced : No
    ENCODING_INFO : H264 X264 ABR 3000kbps Super Fast
    Audio
    ID : 2
    Format : AC-3
    Format/Info : Audio Coding 3
    Codec ID : A_AC3
    Duration : 2 h 5 min
    Bit rate mode : Constant
    Bit rate : 256 kb/s
    Channel(s) : 2 channels
    Channel positions : Front: L R
    Sampling rate : 48.0 kHz
    Frame rate : 31.250 FPS (1536 SPF)
    Bit depth : 16 bits
    Compression mode : Lossy
    Stream size : 230 MiB (8%)
    Service kind : Complete Main
    Default : Yes
    Forced : No
    ENCODING_INFO : AAC-LC AC3 CBR 256kbps

    Скриншоты для ознакомления



    Все одноименные релизы в Клубе
    Время раздачи: 24/7 (до появления первых 3-5 скачавших)

    Онлайн видео Гарриет



    Гарриет / Harriet (2019) WEBRip [H.264 / 720p-LQ] [DVO] [AD] торрент скачать бесплатно
    Рейтинг →
     (голосов: 1, оценка 5/5, голосовать можно 1 раз )

    Другие торренты по теме:

  • Гарриет / Harriet (2019) BDRip [H.264 / 1080p] [DVO] [PR]


    • Комментарии (0):

      Информация

      Информация

        Посетители, находящиеся в группе Гости, не могут оставлять комментарии в данной новости.

        ↓ Меню




        ↓ Опрос

        Вы добавили сайт в закладки?
        Да
        Нет


        Популярное