.
Авторизация | Регистрация
bitok.xyz
Торрент скачать бесплатно Фильмы торрент скачать Хорошие мальчики / Good Boys (2019) BDRip [H.264 / 720p-LQ] торрент скачать бесплатно


    Хорошие мальчики / Good Boys (2019) BDRip [H.264 / 720p-LQ] торрент скачать бесплатно

    Дата: 14-01-2020, 05:00 | .torrent скачали: 0

    Хорошие мальчики / Good Boys (2019) BDRip [H.264 / 720p-LQ]Производство: США/Good Universe, Point Grey Pictures, Universal Pictures
    Жанр: Комедия, приключения
    Режиссер: Джин Ступницки

    Актеры
    Джейкоб Тремблей, Кит Л. Уильямс, Брэйди Нун, Молли Гордон, Мидори Френсис, Исаак Ванг, Милли Дэвис, Джош Барклай Карас, Уилл Форте, Mariessa Portelance

    Описание

    История троих друзей-шестиклассников, планирующих посетить крутую вечеринку. Но прежде они должны хорошенько подготовиться, чтобы не ударить в грязь лицом. Так начинается безумное путешествие по долине Сан-Фернандо, в котором надо вернуть наркотики, украсть пиво и починить сломанного дрона — все это нужно сделать, пока родители не вернулись домой.

    Возраст: 16+ (зрителям, достигшим 16 лет)
    Рейтинг MPAA: R (лицам до 17 лет обязательно присутствие взрослого)
    Дата мировой премьеры: 11 марта 2019
    Релиз от: NNMClub
    Продолжительность: 01: 29: 38
    Качество видео: BDRip (batonchik )
    Перевод: Дублированный (DVD R2)
    Субтитры: Русские (forced, full, FOCS-ненормативная лексика )
    Видео: AVC/H.264, 1280x536, ~2849 Kbps, 23.976 fps
    Аудио: AC3, 6 ch, 384 Kbps | Русский дубляж--Information 13.01.2020 1: 59: 16 Standard error stream
    ---Information 13.01.2020 1: 59: 23 y4m info: 1280x536p 1: 1 @ 24000/1001 fps (cfr)
    ---Information 13.01.2020 1: 59: 23 x264 info: using SAR=1/1
    ---Information 13.01.2020 1: 59: 23 x264 info: using cpu capabilities: MMX2 SSE2Fast SSSE3 SSE4.2 AVX
    ---Information 13.01.2020 1: 59: 23 x264 info: profile High, level 4.1, 4: 2: 0, 8-bit
    ---Information 13.01.2020 5: 53: 27 x264 info: frame I: 1856 Avg QP: 17.21 size: 111007
    ---Information 13.01.2020 5: 53: 27 x264 info: frame P: 31689 Avg QP: 19.30 size: 33202
    ---Information 13.01.2020 5: 53: 27 x264 info: frame B: 95395 Avg QP: 22.27 size: 6783

    ---Information 13.01.2020 5: 53: 27 x264 info: consecutive B-frames: 4.2% 4.9% 13.2% 21.0% 17.0% 32.6% 4.2% 1.1% 0.8% 0.4% 0.6%
    General
    Complete name : Хорошие мальчики_Good Boys (2019) BDRip.LQ.H.264.7280p.NNMClub.mkv
    Format : Matroska
    Format version : Version 4
    File size : 2.02 GiB
    Duration : 1 h 29 min
    Overall bit rate : 3 220 kb/s
    Movie name : Хорошие мальчики_Good Boys (2019) BDRip.LQ.H.264.7280p.NNMClub
    Encoded date : UTC 2020-01-13 05: 32: 02
    Writing application : mkvmerge v40.0.0 (\'Old Town Road + Pony\') 64-bit
    Writing library : libebml v1.3.9 + libmatroska v1.5.2
    Video
    ID : 1
    Format : AVC
    Format/Info : Advanced Video Codec
    Format profile : High@L4.1
    Format settings : CABAC/12 Ref Frames
    Format settings, CABAC : Yes
    Format settings, Reference frames : 12 frames
    Codec ID : V_MPEG4/ISO/AVC
    Duration : 1 h 29 min
    Bit rate : 2 849 kb/s
    Width : 1 280 pixels
    Height : 536 pixels
    Display aspect ratio : 2.40: 1
    Frame rate mode : Constant
    Frame rate : 23.976 (24000/1001) FPS
    Color space : YUV
    Chroma subsampling : 4: 2: 0
    Bit depth : 8 bits
    Scan type : Progressive
    Bits/(Pixel*Frame) : 0.173
    Stream size : 1.77 GiB (88%)
    Title : Хорошие мальчики_Good Boys (2019) BDRip.LQ.H.264.7280p.NNMClub
    Writing library : x264 core 158 r2984 3759fcb
    Encoding settings : cabac=1/ref=12/deblock=1: -3: -3/analyse=0x3: 0x133/me=umh/subme=11/psy=1/psy_rd=1.00: 0.25/mixed_ref=1/me_range=32/chroma_me=1/trellis=2/8x8dct=1/cqm=0/deadzone=6, 6/fast_pskip=0/chroma_qp_offset=-4/threads=12/lookahead_threads=3/sliced_threads=0/nr=0/decimate=0/interlaced=0/bluray_compat=0/constrained_intra=0/bframes=10/b_pyramid=2/b_adapt=2/b_bias=0/direct=1/weightb=1/open_gop=0/weightp=2/keyint=240/keyint_min=23/scenecut=40/intra_refresh=0/rc_lookahead=40/rc=2pass/mbtree=1/bitrate=2849/ratetol=1.0/qcomp=0.60/qpmin=0/qpmax=69/qpstep=4/cplxblur=20.0/qblur=0.5/vbv_maxrate=50000/vbv_bufsize=62500/nal_hrd=none/filler=0/ip_ratio=1.10/aq=3: 0.70
    Language : English
    Default : Yes
    Forced : No
    Audio
    ID : 2
    Format : AC-3
    Format/Info : Audio Coding 3
    Commercial name : Dolby Digital
    Codec ID : A_AC3
    Duration : 1 h 29 min
    Bit rate mode : Constant
    Bit rate : 384 kb/s
    Channel(s) : 6 channels
    Channel layout : L R C LFE Ls Rs
    Sampling rate : 48.0 kHz
    Frame rate : 31.250 FPS (1536 SPF)
    Compression mode : Lossy
    Stream size : 246 MiB (12%)
    Title : Дублированный (iTunes)
    Language : Russian
    Service kind : Complete Main
    Default : Yes
    Forced : No
    Text #1
    ID : 3
    Format : UTF-8
    Codec ID : S_TEXT/UTF8
    Codec ID/Info : UTF-8 Plain Text
    Duration : 1 h 28 min
    Bit rate : 3 b/s
    Count of elements : 53
    Stream size : 2.17 KiB (0%)
    Title : Форс.
    Language : Russian
    Default : Yes
    Forced : No
    Text #2
    ID : 4
    Format : UTF-8
    Codec ID : S_TEXT/UTF8
    Codec ID/Info : UTF-8 Plain Text
    Duration : 1 h 28 min
    Bit rate : 101 b/s
    Count of elements : 1454
    Stream size : 65.9 KiB (0%)
    Title : Полные
    Language : Russian
    Default : No
    Forced : No
    Text #3
    ID : 5
    Format : UTF-8
    Codec ID : S_TEXT/UTF8
    Codec ID/Info : UTF-8 Plain Text
    Duration : 1 h 22 min
    Bit rate : 129 b/s
    Count of elements : 1621
    Stream size : 78.3 KiB (0%)
    Title : Полные (FOCS-ненорматив)
    Language : Russian
    Default : No
    Forced : No
    Menu
    00: 00: 00.000 : en: 00: 00: 00.000
    00: 03: 54.025 : en: 00: 03: 54.025
    00: 09: 00.165 : en: 00: 09: 00.165
    00: 11: 51.169 : en: 00: 11: 51.169
    00: 15: 08.658 : en: 00: 15: 08.658
    00: 17: 29.840 : en: 00: 17: 29.840
    00: 21: 20.696 : en: 00: 21: 20.696
    00: 27: 27.646 : en: 00: 27: 27.646
    00: 31: 25.675 : en: 00: 31: 25.675
    00: 35: 06.104 : en: 00: 35: 06.104
    00: 40: 11.868 : en: 00: 40: 11.868
    00: 47: 16.208 : en: 00: 47: 16.208
    00: 51: 01.183 : en: 00: 51: 01.183
    00: 57: 54.388 : en: 00: 57: 54.388
    01: 02: 27.953 : en: 01: 02: 27.953
    01: 06: 46.544 : en: 01: 06: 46.544
    01: 09: 56.901 : en: 01: 09: 56.901
    01: 14: 19.497 : en: 01: 14: 19.497
    01: 20: 00.796 : en: 01: 20: 00.796
    01: 23: 35.427 : en: 01: 23: 35.427

    Скриншоты для ознакомления


    Все одноименные релизы в Клубе
    Время раздачи: 24/7 (до появления первых 3-5 скачавших)

    Онлайн видео Хорошие мальчики



    Хорошие мальчики / Good Boys (2019) BDRip [H.264 / 720p-LQ] торрент скачать бесплатно
    Рейтинг →
     (голосов: 1, оценка 4/5, голосовать можно 1 раз )

    Другие торренты по теме:

  • Хорошие мальчики (Хорошие ребята) / Good Boys (2019) BDRip [H.264]
  • Хорошие мальчики / Good Boys (2019) WEB-DLRip [H.264 / 720p-LQ] [MVO] [AD]
  • Хорошие мальчики / Good Boys (2019) BDRip [H.264 / 1080p]
  • Хорошие мальчики / Good Boys (2019) BDRemux [H.264 / 1080p]
  • Хорошие мальчики / Good Boys (2019) BDRip
  • Хорошие мальчики / Good Boys (2019) BDRip
  • Хорошие мальчики / Good Boys (2019) BDRip [H.264 / 1080p-LQ] [hand made 16:9]
  • Хорошие мальчики / Good Boys (2019) BDRip [1080p] ATV


    • Комментарии (0):

      Информация

      Информация

        Посетители, находящиеся в группе Гости, не могут оставлять комментарии в данной новости.

        ↓ Меню




        ↓ Опрос

        Вы добавили сайт в закладки?
        Да
        Нет


        Популярное