.
Авторизация | Регистрация
bitok.xyz
Торрент скачать бесплатно Фильмы торрент скачать Приговор / Une intime conviction (2018) BDRip [H.264 / 720p] торрент скачать бесплатно


    Приговор / Une intime conviction (2018) BDRip [H.264 / 720p] торрент скачать бесплатно

    Дата: 14-01-2020, 05:00 | .torrent скачали: 2

    Приговор / Une intime conviction (2018) BDRip [H.264 / 720p]Производство: Франция, Бельгия | Canal+ (fr), Ciné, Cinéventure 3, Delante Films
    Жанр: драма
    Режиссер: Антуан Рэймбо

    Актеры
    Марина Фоис, Оливье Гурме, Лоран Люка, Филипп Юшан, Жан Бенгиги, Франсуа Фенер, Франсуа Карон, Филипп Дормуа, Жан-Клод Легэ, Арман Буланжер

    Описание

    Фильм рассказывает событиях 2010 года — судебном процессе над Жаком Вигье, которого обвиняют в убийстве своей жены Сюзанны. Разбирательство о его предполагаемом преступлении идёт почти 10 лет. В то время как абсолютно все вокруг убеждены в том, что Жак виновен, его знакомая Нора пытается идти против толпы и ведёт своё собственное расследование, раскрывающее самые скрытые тайны жизни всех участников процесса. И всё оказывается намного запутаннее, чем может показаться вначале.

    Дата мировой премьеры: 21 октября 2018
    Цифровой релиз: 9 января 2020, Веста
    Продолжительность: 01: 50: 05
    Качество видео: BDRip
    Перевод: Дублированный (iTunes)
    Субтитры: Отсутствуют
    Видео: AVC/H.264, 1280x536, ~4556 kbps
    Аудио 1: AC3, 6 ch, 384 kbps - русский
    Аудио 2: AC3, 6 ch, 448 kbps - французский
    General
    Unique ID : 236089009983447352902755393409749433716 (0xB19D16E20D69D8F59C4E42A0EB213D74)
    Complete name : D: Une_intime_conviction_2018_BDRip_720p.mkv
    Format : Matroska
    Format version : Version 4
    File size : 4.13 GiB
    Duration : 1 h 50 min
    Overall bit rate : 5 369 kb/s
    Encoded date : UTC 2020-01-12 15: 34: 03
    Writing application : mkvmerge v9.5.0 (\'Quiet Fire\') 64bit
    Writing library : libebml v1.3.4 + libmatroska v1.4.5
    Video
    ID : 1
    Format : AVC
    Format/Info : Advanced Video Codec
    Format profile : High@L4.1
    Format settings : CABAC/12 Ref Frames
    Format settings, CABAC : Yes
    Format settings, ReFrames : 12 frames
    Codec ID : V_MPEG4/ISO/AVC
    Duration : 1 h 50 min
    Bit rate : 4 556 kb/s
    Width : 1 280 pixels
    Height : 536 pixels
    Display aspect ratio : 2.40: 1
    Frame rate mode : Constant
    Frame rate : 24.000 FPS
    Color space : YUV
    Chroma subsampling : 4: 2: 0
    Bit depth : 8 bits
    Scan type : Progressive
    Bits/(Pixel*Frame) : 0.277
    Stream size : 3.49 GiB (84%)
    Title : Sisendrovich(R)
    Writing library : x264 core 152 r2851 ba24899
    Encoding settings : cabac=1/ref=12/deblock=1: -1: -1/analyse=0x3: 0x133/me=tesa/subme=11/psy=1/psy_rd=1.00: 0.00/mixed_ref=1/me_range=32/chroma_me=1/trellis=2/8x8dct=1/cqm=0/deadzone=21, 11/fast_pskip=0/chroma_qp_offset=-2/threads=17/lookahead_threads=4/sliced_threads=0/nr=0/decimate=0/interlaced=0/bluray_compat=0/constrained_intra=0/bframes=10/b_pyramid=2/b_adapt=2/b_bias=0/direct=3/weightb=1/open_gop=0/weightp=2/keyint=240/keyint_min=23/scenecut=40/intra_refresh=0/rc_lookahead=60/rc=2pass/mbtree=0/bitrate=4556/ratetol=1.0/qcomp=0.70/qpmin=0/qpmax=69/qpstep=4/cplxblur=20.0/qblur=0.5/vbv_maxrate=50000/vbv_bufsize=62500/nal_hrd=none/filler=0/ip_ratio=1.40/pb_ratio=1.30/aq=3: 0.90
    Language : French
    Default : Yes
    Forced : No
    Audio #1
    ID : 2
    Format : AC-3
    Format/Info : Audio Coding 3
    Commercial name : Dolby Digital
    Codec ID : A_AC3
    Duration : 1 h 50 min
    Bit rate mode : Constant
    Bit rate : 384 kb/s
    Channel(s) : 6 channels
    Channel layout : L R C LFE Ls Rs
    Sampling rate : 48.0 kHz
    Frame rate : 31.250 FPS (1536 SPF)
    Bit depth : 16 bits
    Compression mode : Lossy
    Stream size : 302 MiB (7%)
    Title : rus
    Language : Russian
    Service kind : Complete Main
    Default : Yes
    Forced : No
    Audio #2
    ID : 3
    Format : AC-3
    Format/Info : Audio Coding 3
    Commercial name : Dolby Digital
    Codec ID : A_AC3
    Duration : 1 h 50 min
    Bit rate mode : Constant
    Bit rate : 448 kb/s
    Channel(s) : 6 channels
    Channel layout : L R C LFE Ls Rs
    Sampling rate : 48.0 kHz
    Frame rate : 31.250 FPS (1536 SPF)
    Bit depth : 16 bits
    Compression mode : Lossy
    Stream size : 353 MiB (8%)
    Title : fre
    Language : French
    Service kind : Complete Main
    Default : No
    Forced : No
    Menu
    00: 00: 00.000 : : Chapter 1
    00: 04: 35.875 : : Chapter 2
    00: 14: 31.916 : : Chapter 3
    00: 24: 21.000 : : Chapter 4
    00: 29: 57.250 : : Chapter 5
    00: 36: 18.208 : : Chapter 6
    00: 51: 17.750 : : Chapter 7
    01: 05: 42.750 : : Chapter 8
    01: 12: 08.708 : : Chapter 9
    01: 24: 19.791 : : Chapter 10
    01: 30: 38.125 : : Chapter 11
    01: 42: 38.916 : : Chapter 12

    Скриншоты для ознакомления



    Все одноименные релизы в Клубе
    Время раздачи: 24/7 (до появления первых 3-5 скачавших)

    Онлайн видео Приговор



    Приговор / Une intime conviction (2018) BDRip [H.264 / 720p] торрент скачать бесплатно
    Рейтинг →
     (голосов: 1, оценка 4/5, голосовать можно 1 раз )

    Другие торренты по теме:

  • Приговор / Une intime conviction (2018) BDRip [H.264 / 1080p]


    • Комментарии (0):

      Информация

      Информация

        Посетители, находящиеся в группе Гости, не могут оставлять комментарии в данной новости.

        ↓ Меню




        ↓ Опрос

        Вы добавили сайт в закладки?
        Да
        Нет


        Популярное