.
Авторизация | Регистрация
bitok.xyz
Торрент скачать бесплатно Фильмы торрент скачать Отражающая кожа (Зеркальная кожа) / The Reflecting Skin (1990) BDRemux [H.264 / 1080p] [AVO] торрент скачать бесплатно


    Отражающая кожа (Зеркальная кожа) / The Reflecting Skin (1990) BDRemux [H.264 / 1080p] [AVO] торрент скачать бесплатно

    Дата: 14-01-2020, 05:00 | .torrent скачали: 0

    Отражающая кожа (Зеркальная кожа) / The Reflecting Skin (1990) BDRemux [H.264 / 1080p] [AVO]Производство: Великобритания, Канада/British Screen Productions, BBC Films, Zenith Entertainment
    Жанр: Драма, Триллер
    Режиссер: Филип Ридли
    Продюсер: Доминик Анчиано, Рей Бердис, Джим Бич

    Актеры
    Вигго Мортенсен, Линдси Дункан, Джереми Купер, Шила Мур, Дункан Фрайзер, Дэвид Лонгуорт, Роберт Кунс, Дэвид Блум, Ивэн Холл, Коди Лукас Уилби

    Описание

    В краю, где мужчины сходят с ума от рутины, а женщины высыхают и дышат ржавчиной, трое мальчишек играют в пшеничных полях и старой, покосившейся церкви. Этот край навещает зло, и маленький Сет невольно становится его сообщником.

    Рейтинг MPAA: R (лицам до 17 лет обязательно присутствие взрослого)
    Релиз от: R.G. Goldenshara
    Продолжительность: 01: 35: 53
    Качество видео: BDRemux 1080p
    Перевод: Авторский
    Субтитры: Русские, Английские
    Видео: AVC/H.264, 1920x1080 (16: 9), ~33.8 Mbps, 23.976 fps
    Аудио #1: AC3, 2 ch, 48.0 KHz, 192 kbps | Русский - (AVO Ю. Сербин)
    Аудио #2: AC3, 2 ch, 48.0 KHz, 192 kbps | Русский - (AVO А. Алексеев)
    Аудио #3: AC3, 2 ch, 48.0 KHz, 192 kbps | Русский - (AVO А. Гаврилов)
    Аудио #4: AC3, 2 ch, 48.0 KHz, 192 kbps | Английский
    Аудио #5: AC3, 2 ch, 48.0 KHz, 192 kbps | Английский - (Комментарии)
    General
    Unique ID : 214619688690480834094958372841683768758 (0xA1763F9E60C40AD6BB8F676D82E955B6)
    Complete name : E: Мои рипыОтражающая кожа.1990.BDRemux.1080p.R.G. Goldenshara.mkv
    Format : Matroska
    Format version : Version 4/Version 2
    File size : 23.8 GiB
    Duration : 1h 35mn
    Overall bit rate mode : Variable
    Overall bit rate : 35.5 Mbps
    Encoded date : UTC 2020-01-13 14: 40: 38
    Writing application : mkvmerge v6.8.0 (\'Theme for Great Cities\') 64bit built on Mar 2 2014 21: 34: 26
    Writing library : libebml v1.3.0 + libmatroska v1.4.1
    Video
    ID : 1
    Format : AVC
    Format/Info : Advanced Video Codec
    Format profile : High@L4.1
    Format settings, CABAC : Yes
    Format settings, ReFrames : 4 frames
    Codec ID : V_MPEG4/ISO/AVC
    Duration : 1h 35mn
    Bit rate mode : Constant
    Bit rate : 33.3 Mbps
    Nominal bit rate : 35.0 Mbps
    Width : 1 920 pixels
    Height : 1 080 pixels
    Display aspect ratio : 16: 9
    Frame rate mode : Constant
    Frame rate : 23.976 fps
    Standard : NTSC
    Color space : YUV
    Chroma subsampling : 4: 2: 0
    Bit depth : 8 bits
    Scan type : Progressive
    Bits/(Pixel*Frame) : 0.670
    Stream size : 22.3 GiB (94%)
    Language : English
    Default : Yes
    Forced : No
    Color primaries : BT.709
    Transfer characteristics : BT.709
    Matrix coefficients : BT.709
    Audio #1
    ID : 2
    Format : AC-3
    Format/Info : Audio Coding 3
    Mode extension : CM (complete main)
    Format settings, Endianness : Big
    Codec ID : A_AC3
    Duration : 1h 35mn
    Bit rate mode : Constant
    Bit rate : 192 Kbps
    Channel(s) : 2 channels
    Channel positions : Front: L R
    Sampling rate : 48.0 KHz
    Bit depth : 16 bits
    Compression mode : Lossy
    Stream size : 132 MiB (1%)
    Title : AVO Ю. Сербин
    Language : Russian
    Default : Yes
    Forced : No
    Audio #2
    ID : 3
    Format : AC-3
    Format/Info : Audio Coding 3
    Mode extension : CM (complete main)
    Format settings, Endianness : Big
    Codec ID : A_AC3
    Duration : 1h 35mn
    Bit rate mode : Constant
    Bit rate : 192 Kbps
    Channel(s) : 2 channels
    Channel positions : Front: L R
    Sampling rate : 48.0 KHz
    Bit depth : 16 bits
    Compression mode : Lossy
    Stream size : 132 MiB (1%)
    Title : AVO А. Алексеев
    Language : Russian
    Default : No
    Forced : No
    Audio #3
    ID : 4
    Format : AC-3
    Format/Info : Audio Coding 3
    Mode extension : CM (complete main)
    Format settings, Endianness : Big
    Codec ID : A_AC3
    Duration : 1h 35mn
    Bit rate mode : Constant
    Bit rate : 192 Kbps
    Channel(s) : 2 channels
    Channel positions : Front: L R
    Sampling rate : 48.0 KHz
    Bit depth : 16 bits
    Compression mode : Lossy
    Stream size : 132 MiB (1%)
    Title : AVO А. Гаврилов
    Language : Russian
    Default : No
    Forced : No
    Audio #4
    ID : 5
    Format : DTS
    Format/Info : Digital Theater Systems
    Format profile : MA/Core
    Codec ID : A_DTS
    Duration : 1h 35mn
    Bit rate mode : Variable
    Bit rate : 560 Kbps/512 Kbps
    Channel(s) : 2 channels
    Channel positions : Front: L R
    Sampling rate : 48.0 KHz
    Bit depth : 16 bits
    Compression mode : Lossless/Lossy
    Language : English
    Default : No
    Forced : No
    Audio #5
    ID : 6
    Format : AC-3
    Format/Info : Audio Coding 3
    Mode extension : CM (complete main)
    Format settings, Endianness : Big
    Codec ID : A_AC3
    Duration : 1h 35mn
    Bit rate mode : Constant
    Bit rate : 320 Kbps
    Channel(s) : 2 channels
    Channel positions : Front: L R
    Sampling rate : 48.0 KHz
    Bit depth : 16 bits
    Compression mode : Lossy
    Stream size : 219 MiB (1%)
    Title : Commentary with writer/director Philip Ridley
    Language : English
    Default : No
    Forced : No
    Text #1
    ID : 7
    Format : UTF-8
    Codec ID : S_TEXT/UTF8
    Codec ID/Info : UTF-8 Plain Text
    Language : Russian
    Default : No
    Forced : No
    Text #2
    ID : 8
    Format : UTF-8
    Codec ID : S_TEXT/UTF8
    Codec ID/Info : UTF-8 Plain Text
    Language : English
    Default : No
    Forced : No
    Menu
    00: 00: 00.000 : en: Opening Credits
    00: 02: 04.708 : en: Exploding Frog
    00: 05: 56.314 : en: Gasolene Grease
    00: 09: 40.455 : en: Son of a Scarecrow
    00: 14: 10.224 : en: Dreams and Decay
    00: 22: 52.204 : en: Water
    00: 27: 11.338 : en: The Vampire\'s House
    00: 32: 50.135 : en: From Kissing to Killing
    00: 37: 59.986 : en: Doverage
    00: 41: 12.887 : en: Cameron
    00: 45: 50.039 : en: A New Kind of Animal
    00: 54: 15.878 : en: An Angel Thrown to Earth
    00: 58: 05.148 : en: Photograph Puzzle
    01: 02: 37.337 : en: Bombs
    01: 08: 09.210 : en: Killer Cadillac
    01: 11: 58.981 : en: Harpoon Blood
    01: 18: 22.323 : en: Sin! Sin! Sin!
    01: 24: 44.037 : en: A Beautiful Day
    01: 29: 34.244 : en: Sunset Screaming
    01: 33: 55.171 : en: End Credits


    Онлайн видео Отражающая кожа (Зеркальная кожа)



    Отражающая кожа (Зеркальная кожа) / The Reflecting Skin (1990) BDRemux [H.264 / 1080p] [AVO] торрент скачать бесплатно
    Рейтинг →
     (голосов: 1, оценка 4/5, голосовать можно 1 раз )

    Другие торренты по теме:

  • Отражающая кожа / The Reflecting Skin (1990) BDRip [H.264 / 1080p] [AVO]


    • Комментарии (0):

      Информация

      Информация

        Посетители, находящиеся в группе Гости, не могут оставлять комментарии в данной новости.

        ↓ Меню




        ↓ Опрос

        Вы добавили сайт в закладки?
        Да
        Нет


        Популярное