.
Авторизация | Регистрация
bitok.xyz
Торрент скачать бесплатно Фильмы торрент скачать Принцесса Ян Гуй Фэй / Yokihi / Princess Yang Kwei Fei (1955) BDRip [H.264 / 720p] [VO] торрент скачать бесплатно


    Принцесса Ян Гуй Фэй / Yokihi / Princess Yang Kwei Fei (1955) BDRip [H.264 / 720p] [VO] торрент скачать бесплатно

    Дата: 14-01-2020, 05:00 | .torrent скачали: 0

    Принцесса Ян Гуй Фэй / Yokihi / Princess Yang Kwei Fei (1955) BDRip [H.264 / 720p] [VO]Производство: Япония, Гонконг, Daiei Studios, Shaw Brothers
    Жанр: Драма, мелодрама, история
    Режиссер: Кендзи Мидзогути
    Продюсер: Масаити Нагата, Ран Ран Шоу

    Актеры
    Матико Кё, Масаюки Мори, Со Ямамура, Эйтаро Синдо, Эйтаро Одзава, Харуко Сугимура, Ёко Минамида, Бонтаро Миякэ, Тацуя Исигуро, Киндзо Син

    Описание

    Китайский император Сюаньцзун пребывает в печали после смерти своей возлюбленной жены. Один из офицеров, приближенных к двору, пытается помочь императору и решает найти для него красивую девушку, которая своими песнями и танцами сможет отвлечь его господина от грустных мыслей. Офицер убежден, если девушка понравится императору, он непременно вознаградит его. Офицер мечтает занять самый высокий пост в правительстве страны. Такая девушка найдена, однако ее появление во дворце вызывает немало проблем.

    Релиз от: vitolinform
    Продолжительность: 01: 31: 11
    Качество видео: BDRip
    Перевод: Одноголосый любительский (Виктор Береговых)
    Субтитры: Русские, английские
    Видео: AVC/H.264, 960x720 (4: 3), ~12.1 Mbps
    Аудио 1: AC3, 2 ch, 192 Кbps | Русский (VO В.Береговых)
    Аудио 2: AC3, 1 ch, 192 Кbps | Японский
    Аудио 3: FLAC, 1 ch, 190 Кbps | Японский
    Yokihi.1955.BDRip.720p.mkv
    Формат : Matroska
    Версия формата : Version 4
    Размер файла : 8, 08 Гбайт
    Продолжительность : 1 ч. 31 м.
    Режим общего битрейта : Переменный
    Общий поток : 12, 7 Мбит/сек
    Название фильма : Принцесса Ян Гуй Фэй/Yôkihi (1955) BDRip (720p)
    Дата кодирования : UTC 2020-01-12 20: 39: 47
    Программа кодирования : mkvmerge v38.0.0 (\'The Silent Type\') 32-bit
    Библиотека кодирования : libebml v1.3.9 + libmatroska v1.5.2
    Видео
    Идентификатор : 1
    Формат : AVC
    Формат/Информация : Advanced Video Codec
    Профиль формата : High@L4.1
    Настройки формата : CABAC/12 Ref Frames
    Параметр CABAC формата : Да
    Параметр RefFrames формата : 12 кадров
    Идентификатор кодека : V_MPEG4/ISO/AVC
    Продолжительность : 1 ч. 31 м.
    Битрейт : 12, 1 Мбит/сек
    Ширина : 960 пикселей
    Высота : 720 пикселей
    Соотношение сторон : 4: 3
    Режим частоты кадров : Постоянный
    Частота кадров : 23, 976 (24000/1001) кадра/сек
    Цветовое пространство : YUV
    Субдискретизация насыщенности : 4: 2: 0
    Битовая глубина : 8 бит
    Тип развёртки : Прогрессивная
    Бит/(Пиксели*Кадры) : 0.730
    Размер потока : 7, 71 Гбайт (95%)
    Заголовок : Принцесса Ян Гуй Фэй/Yôkihi (1955) BDRip (720p)
    Библиотека кодирования : x264 core 140 r2377 1ca7bb9
    Настройки программы : cabac=1/ref=12/deblock=1: -3: -3/analyse=0x3: 0x133/me=tesa/subme=10/psy=1/psy_rd=1.15: 0.00/mixed_ref=1/me_range=32/chroma_me=1/trellis=2/8x8dct=1/cqm=0/deadzone=21, 11/fast_pskip=0/chroma_qp_offset=-2/threads=12/lookahead_threads=3/sliced_threads=0/nr=0/decimate=1/interlaced=0/bluray_compat=0/constrained_intra=0/bframes=13/b_pyramid=2/b_adapt=2/b_bias=0/direct=3/weightb=1/open_gop=0/weightp=2/keyint=241/keyint_min=23/scenecut=40/intra_refresh=0/rc_lookahead=60/rc=crf/mbtree=0/crf=17.0/qcomp=0.70/qpmin=0/qpmax=69/qpstep=4/vbv_maxrate=50000/vbv_bufsize=62500/crf_max=0.0/nal_hrd=none/filler=0/ip_ratio=1.40/pb_ratio=1.30/aq=1: 0.70
    Язык : Japanese
    Default : Да
    Forced : Нет
    Аудио #1
    Идентификатор : 2
    Формат : AC-3
    Формат/Информация : Audio Coding 3
    Коммерческое название : Dolby Digital
    Идентификатор кодека : A_AC3
    Продолжительность : 1 ч. 31 м.
    Вид битрейта : Постоянный
    Битрейт : 192 Кбит/сек
    Каналы : 2 канала
    ChannelLayout : L R
    Частота : 48, 0 КГц
    Частота кадров : 31, 250 кадров/сек (1536 SPF)
    Битовая глубина : 16 бит
    Метод сжатия : С потерями
    Размер потока : 125 Мбайт (2%)
    Заголовок : Russian (Виктор Береговых)
    Язык : Russian
    ServiceKind/String : Complete Main
    Default : Да
    Forced : Нет
    Аудио #2
    Идентификатор : 3
    Формат : AC-3
    Формат/Информация : Audio Coding 3
    Коммерческое название : Dolby Digital
    Идентификатор кодека : A_AC3
    Продолжительность : 1 ч. 31 м.
    Вид битрейта : Постоянный
    Битрейт : 192 Кбит/сек
    Каналы : 1 канал
    ChannelLayout : C
    Частота : 48, 0 КГц
    Частота кадров : 31, 250 кадров/сек (1536 SPF)
    Битовая глубина : 16 бит
    Метод сжатия : С потерями
    Размер потока : 125 Мбайт (2%)
    Язык : Japanese
    ServiceKind/String : Complete Main
    Default : Нет
    Forced : Нет
    Аудио #3
    Идентификатор : 4
    Формат : FLAC
    Формат/Информация : Free Lossless Audio Codec
    Идентификатор кодека : A_FLAC
    Продолжительность : 1 ч. 31 м.
    Вид битрейта : Переменный
    Битрейт : 190 Кбит/сек
    Каналы : 1 канал
    ChannelLayout : C
    Частота : 48, 0 КГц
    Частота кадров : 11, 719 кадров/сек (4096 SPF)
    Битовая глубина : 16 бит
    Метод сжатия : Без потерь
    Размер потока : 124 Мбайт (1%)
    Библиотека кодирования : libFLAC 1.2.1 (UTC 2007-09-17)
    Язык : Japanese
    Default : Нет
    Forced : Нет
    Текст #1
    Идентификатор : 5
    Формат : UTF-8
    Идентификатор кодека : S_TEXT/UTF8
    Идентификатор кодека/Информация : UTF-8 Plain Text
    Продолжительность : 1 ч. 30 м.
    Битрейт : 80 бит/сек
    ElementCount : 797
    Размер потока : 52, 9 Кбайт (0%)
    Язык : Russian
    Default : Нет
    Forced : Нет
    Текст #2
    Идентификатор : 6
    Формат : UTF-8
    Идентификатор кодека : S_TEXT/UTF8
    Идентификатор кодека/Информация : UTF-8 Plain Text
    Продолжительность : 1 ч. 30 м.
    Битрейт : 47 бит/сек
    ElementCount : 803
    Размер потока : 31, 2 Кбайт (0%)
    Язык : English
    Default : Нет
    Forced : Нет
    Меню
    00: 00: 00.000 : en: 01. Imperial Orders
    00: 08: 57.454 : en: 02. Family Ambitions
    00: 12: 31.209 : en: 03. Hidden Jewel
    00: 18: 11.924 : en: 04. Mother Abbess
    00: 23: 20.024 : en: 05. Plum Blossoms
    00: 28: 32.210 : en: 06. Lotus Spring
    00: 38: 11.706 : en: 07. Constrictive Laws
    00: 42: 47.315 : en: 08. Festival of Lanterns
    00: 49: 54.742 : en: 09. Death to the Yang\'s
    00: 54: 11.039 : en: 10. Powerful Relations
    01: 00: 12.734 : en: 11. Dismissal
    01: 05: 34.764 : en: 12. Home Song
    01: 10: 27.306 : en: 13. Uprising
    01: 16: 48.521 : en: 14. Baying for Blood
    01: 21: 23.295 : en: 15. Sacrifice
    01: 28: 13.163 : en: 16. Together in Love

    Скриншоты для ознакомления




    Все одноименные релизы в Клубе
    Время раздачи: 24/7 (мультитрекерная раздача) (до появления первых 3-5 скачавших)

    Онлайн видео Принцесса Ян Гуй Фэй



    Принцесса Ян Гуй Фэй / Yokihi / Princess Yang Kwei Fei (1955) BDRip [H.264 / 720p] [VO] торрент скачать бесплатно
    Рейтинг →
     (голосов: 1, оценка 5/5, голосовать можно 1 раз )

    Другие торренты по теме:

  • Принцесса Ян Гуй Фэй / Yokihi / Princess Yang Kwei Fei (1955) HDRip [VO]


    • Комментарии (0):

      Информация

      Информация

        Посетители, находящиеся в группе Гости, не могут оставлять комментарии в данной новости.

        ↓ Меню




        ↓ Опрос

        Вы добавили сайт в закладки?
        Да
        Нет


        Популярное