.
Авторизация | Регистрация
bitok.xyz
Торрент скачать бесплатно Фильмы торрент скачать Ангелочек 3: Последняя глава / Angel III: The Final Chapter (1988) BDRemux [H.264 / 1080p] торрент скачать бесплатно


    Ангелочек 3: Последняя глава / Angel III: The Final Chapter (1988) BDRemux [H.264 / 1080p] торрент скачать бесплатно

    Дата: 14-01-2020, 05:00 | .torrent скачали: 3

    Ангелочек 3: Последняя глава / Angel III: The Final Chapter (1988) BDRemux [H.264 / 1080p]Производство: США/New World Pictures
    Жанр: Боевик, Драма
    Режиссер: Том ДеСимоне
    Продюсер: Дон Левин, Арнольд Х. Орджолини, Мэл Перл

    Актеры
    Митци Кэптчер, Марк Блэнкфилд, Emile Beaucard, Мод Эдамс, Кин Шрайнер, Тони Фере, С.А. Гриффин, Ричард Раундтри, Анна Наварро, Сьюзэн Мур

    Описание

    Молли Стюарт встречает на одной из выставок в Нью-Йорке женщину, которая кажется ей странно знакомой. Позже она узнаёт, что это её мать, но воссоединения семьи не происходит — женщина вскоре погибает при взрыве, успев сообщить Молли, что у той есть сестра, и она в большой опасности.

    Рейтинг MPAA: R (лицам до 17 лет обязательно присутствие взрослого)
    Релиз от: R.G. Goldenshara
    Продолжительность: 01: 39: 32
    Качество видео: BDRemux 1080p
    Перевод: Дублированный, Авторский, Одноголосый
    Субтитры: Английские (SDH)
    Видео: AVC/H.264, 1920x1080 (16: 9), ~34.9 Mbps, 23.976 fps
    Аудио #1: AC3, 2 ch, 48.0 KHz, 192 kbps | Русский - (DUB Варус Видео + вставки из М. Иванова)
    Аудио #2: AC3, 2 ch, 48.0 KHz, 192 kbps | Русский - (AVO Михаил Иванов)
    Аудио #3: AC3, 2 ch, 48.0 KHz, 192 kbps | Русский - (VO Неизвестный (женский голос))
    Аудио #4: DTS-HD MA, 2 ch, 48.0 KHz, 2108 kbps | Английский
    Аудио #5: AC3, 2 ch, 48.0 KHz, 448 kbps | Английский
    Аудио #6: AC3, 2 ch, 48.0 KHz, 192 kbps | Английский - (Комментарии)
    General
    Unique ID : 237309149933091119364847193243929535908 (0xB288146D55CC993C9DDF38DBCA17E5A4)
    Complete name : E: Мои рипыАнгелочек 3.Последняя глава.1988.BDRemux.1080p.R.G. Goldenshara.mkv
    Format : Matroska
    Format version : Version 4/Version 2
    File size : 26.6 GiB
    Duration : 1h 39mn
    Overall bit rate mode : Variable
    Overall bit rate : 38.2 Mbps
    Encoded date : UTC 2020-01-12 23: 41: 08
    Writing application : mkvmerge v6.8.0 (\'Theme for Great Cities\') 64bit built on Mar 2 2014 21: 34: 26
    Writing library : libebml v1.3.0 + libmatroska v1.4.1
    Video
    ID : 1
    Format : AVC
    Format/Info : Advanced Video Codec
    Format profile : High@L4.1
    Format settings, CABAC : Yes
    Format settings, ReFrames : 3 frames
    Codec ID : V_MPEG4/ISO/AVC
    Bit rate mode : Variable
    Bit rate : 35.0 Mbps
    Maximum bit rate : 40.0 Mbps
    Width : 1 920 pixels
    Height : 1 080 pixels
    Display aspect ratio : 16: 9
    Frame rate mode : Variable
    Original frame rate : 23.976 fps
    Standard : NTSC
    Color space : YUV
    Chroma subsampling : 4: 2: 0
    Bit depth : 8 bits
    Scan type : Progressive
    Bits/(Pixel*Frame) : 0.704
    Writing library : x264pro - Adobe CS Exporter Plug-in
    Encoding settings : cabac=1/ref=4/deblock=1: -1: -1/analyse=0x3: 0x133/me=umh/subme=10/psy=1/psy_rd=1.00: 0.15/mixed_ref=1/me_range=24/chroma_me=1/trellis=2/8x8dct=1/cqm=0/deadzone=21, 11/fast_pskip=1/chroma_qp_offset=-3/threads=12/lookahead_threads=2/sliced_threads=0/slices=4/nr=0/decimate=1/interlaced=0/bluray_compat=1/constrained_intra=0/bframes=3/b_pyramid=1/b_adapt=2/b_bias=0/direct=3/weightb=1/open_gop=0/weightp=1/keyint=24/keyint_min=1/scenecut=40/intra_refresh=0/rc_lookahead=24/rc=2pass/mbtree=1/bitrate=35000/ratetol=1.0/qcomp=0.60/qpmin=0/qpmax=69/qpstep=4/cplxblur=20.0/qblur=0.5/vbv_maxrate=40000/vbv_bufsize=30000/nal_hrd=vbr/ip_ratio=1.40/aq=1: 1.00
    Language : English
    Default : Yes
    Forced : No
    Color primaries : BT.709
    Transfer characteristics : BT.709
    Matrix coefficients : BT.709
    Audio #1
    ID : 2
    Format : AC-3
    Format/Info : Audio Coding 3
    Mode extension : CM (complete main)
    Format settings, Endianness : Big
    Codec ID : A_AC3
    Duration : 1h 39mn
    Bit rate mode : Constant
    Bit rate : 192 Kbps
    Channel(s) : 2 channels
    Channel positions : Front: L R
    Sampling rate : 48.0 KHz
    Bit depth : 16 bits
    Compression mode : Lossy
    Delay relative to video : -83ms
    Stream size : 137 MiB (1%)
    Title : Дубляж, Варус Видео
    Language : Russian
    Default : Yes
    Forced : No
    Audio #2
    ID : 3
    Format : AC-3
    Format/Info : Audio Coding 3
    Mode extension : CM (complete main)
    Format settings, Endianness : Big
    Codec ID : A_AC3
    Duration : 1h 39mn
    Bit rate mode : Constant
    Bit rate : 192 Kbps
    Channel(s) : 2 channels
    Channel positions : Front: L R
    Sampling rate : 48.0 KHz
    Bit depth : 16 bits
    Compression mode : Lossy
    Delay relative to video : -83ms
    Stream size : 137 MiB (1%)
    Title : Одноголосый, Михаил Иванов
    Language : Russian
    Default : No
    Forced : No
    Audio #3
    ID : 4
    Format : AC-3
    Format/Info : Audio Coding 3
    Mode extension : CM (complete main)
    Format settings, Endianness : Big
    Codec ID : A_AC3
    Duration : 1h 39mn
    Bit rate mode : Constant
    Bit rate : 192 Kbps
    Channel(s) : 2 channels
    Channel positions : Front: L R
    Sampling rate : 48.0 KHz
    Bit depth : 16 bits
    Compression mode : Lossy
    Delay relative to video : -83ms
    Stream size : 137 MiB (1%)
    Title : Одноголосый
    Language : Russian
    Default : No
    Forced : No
    Audio #4
    ID : 5
    Format : DTS
    Format/Info : Digital Theater Systems
    Format profile : MA/Core
    Codec ID : A_DTS
    Duration : 1h 39mn
    Bit rate mode : Variable
    Bit rate : 1 558 Kbps/1 510 Kbps
    Channel(s) : 2 channels
    Channel positions : Front: L R
    Sampling rate : 48.0 KHz
    Bit depth : 24 bits
    Compression mode : Lossless/Lossy
    Language : English
    Default : No
    Forced : No
    Audio #5
    ID : 6
    Format : AC-3
    Format/Info : Audio Coding 3
    Mode extension : CM (complete main)
    Format settings, Endianness : Big
    Codec ID : A_AC3
    Duration : 1h 39mn
    Bit rate mode : Constant
    Bit rate : 448 Kbps
    Channel(s) : 2 channels
    Channel positions : Front: L R
    Sampling rate : 48.0 KHz
    Bit depth : 16 bits
    Compression mode : Lossy
    Stream size : 319 MiB (1%)
    Language : English
    Default : No
    Forced : No
    Audio #6
    ID : 7
    Format : AC-3
    Format/Info : Audio Coding 3
    Mode extension : CM (complete main)
    Format settings, Endianness : Big
    Codec ID : A_AC3
    Duration : 1h 39mn
    Bit rate mode : Constant
    Bit rate : 192 Kbps
    Channel(s) : 2 channels
    Channel positions : Front: L R
    Sampling rate : 48.0 KHz
    Bit depth : 16 bits
    Compression mode : Lossy
    Stream size : 137 MiB (1%)
    Title : Комментарии
    Language : English
    Default : No
    Forced : No
    Text
    ID : 8
    Format : UTF-8
    Codec ID : S_TEXT/UTF8
    Codec ID/Info : UTF-8 Plain Text
    Title : SDH
    Language : English
    Default : No
    Forced : No
    Menu
    00: 00: 00.000 : en: Chapter 1
    00: 20: 25.724 : en: Chapter 2
    00: 41: 07.965 : en: Chapter 3
    01: 00: 22.619 : en: Chapter 4
    01: 20: 58.854 : en: Chapter 5
    01: 39: 32.383 : en: Chapter 6


    Онлайн видео Ангелочек 3: Последняя глава



    Ангелочек 3: Последняя глава / Angel III: The Final Chapter (1988) BDRemux [H.264 / 1080p] торрент скачать бесплатно
    Рейтинг →
     (голосов: 1, оценка 4/5, голосовать можно 1 раз )

    Другие торренты по теме:

  • Леонид Андреев | Ангелочек и другие рассказы (2012) [MP3]
  • Ангелочек / Angel Baby (1995) DVDRip [AVO] скачать через торрент бесплатно
  • Мари-Бернадетт Дюпюи | Ангелочек. Дыхание утренней зари (2016) [FB2]
  • Маргарита Южина | Снежный ангелочек (2016) [FB2]
  • Ангелочек / Angel (1984) Blu-ray [H.264 / 1080p] [Custom]
  • Ангелочек / Angel (1984) BDRemux [H.264 / 1080p] [Remastered]
  • Ангелочек-мстительница (Месть ангела) / Avenging Angel (1985) BDRemux [H.264 / 1080p]


    • Комментарии (0):

      Информация

      Информация

        Посетители, находящиеся в группе Гости, не могут оставлять комментарии в данной новости.

        ↓ Меню




        ↓ Опрос

        Вы добавили сайт в закладки?
        Да
        Нет


        Популярное