.
Авторизация | Регистрация
bitok.xyz
Торрент скачать бесплатно Фильмы торрент скачать Только чудо / Тільки Диво (2019) IPTVRip [UKR] торрент скачать бесплатно


    Только чудо / Тільки Диво (2019) IPTVRip [UKR] торрент скачать бесплатно

    Дата: 14-01-2020, 05:00 | .torrent скачали: 4

    Только чудо / Тільки Диво (2019) IPTVRip [UKR]Производство: Украина , Gloria FX, Kazka Production, Ukrainian State Film Agency
    Жанр: фэнтези, семейный
    Режиссер: Елена Каретник
    Продюсер: Елена Каретник, Лариса Величанская, Иванна Дядюра

    Актеры
    Георгий Ярмоленко, Наталья Дзенькив, Екатерина Прищепа, Мария Герасименко, Сергей Файфура, Анжелика Савченко, Евгений Ныщук, Мария Тараненко, София Санина, Александр Дирдовский

    Описание

    Семнадцатилетний Северин живет вместе с семьей в живописном горном городе, страдающего от бесконечной зимы долгие семь лет. Небогатый, но добрый и смелый юноша должен привезти известного врача для отца, который был сильно ранен, спасая родной город от разрушительного наступающего льда. На пути Северина много препятствий: стихийные бедствия, таинственные летающие существа и безжалостные злодеи.

    Премьера (мир): 19 декабря 2019
    Продолжительность: 01: 28: 30
    Качество видео: IPTVRip
    Перевод: Отсутствует
    Язык озвучки: Украинский
    Субтитры: Отсутствуют
    Видео: Xvid, 720x304, ~1859 kbps
    Аудио: AC3, 2 ch, 192 KbpsОбщее
    Полное имя : Tilky.Dyvo.(2019).IPTVRip.avi
    Формат : AVI
    Формат/Информация : Audio Video Interleave
    Размер файла : 1, 27 Гбайт
    Продолжительность : 1 ч. 28 м.
    Общий поток : 2061 Кбит/сек
    Библиотека кодирования : VirtualDub build 35491/release
    Видео
    Идентификатор : 0
    Формат : MPEG-4 Visual
    Профиль формата : Advanced Simple@L5
    Настройки формата : BVOP2
    Параметр BVOP формата : 2
    Параметр QPel формата : Нет
    Параметр GMC формата : Без точки перехода
    Параметр матрицы формата : Default (MPEG)
    Режим смешивания : Сжатый битовый поток
    Идентификатор кодека : XVID
    Идентификатор кодека/Подсказка : XviD
    Продолжительность : 1 ч. 28 м.
    Битрейт : 1859 Кбит/сек
    Ширина : 720 пикселей
    Высота : 304 пикселя
    Соотношение сторон : 2, 35: 1
    Частота кадров : 25, 000 кадров/сек
    Цветовое пространство : YUV
    Субдискретизация насыщенности : 4: 2: 0
    Битовая глубина : 8 бит
    Тип развёртки : Прогрессивная
    Метод сжатия : С потерями
    Бит/(Пиксели*Кадры) : 0.340
    Размер потока : 1, 15 Гбайт (90%)
    Библиотека кодирования : XviD 64
    Аудио
    Идентификатор : 1
    Формат : AC-3
    Формат/Информация : Audio Coding 3
    Коммерческое название : Dolby Digital
    Идентификатор кодека : 2000
    Продолжительность : 1 ч. 28 м.
    Вид битрейта : Постоянный
    Битрейт : 192 Кбит/сек
    Каналы : 2 канала
    Channel layout : L R
    Частота : 48, 0 КГц
    Частота кадров : 31, 250 кадров/сек (1536 SPF)
    Битовая глубина : 16 бит
    Метод сжатия : С потерями
    Размер потока : 122 Мбайт (9%)
    Выравнивание : Соединение по промежуткам
    Продолжительность промежутка : 40 мс. (1, 00 видеокадр)
    Время предзагрузки промежутка : 512 мс.
    ServiceKind/String : Complete Main

    Скриншоты для ознакомления



    Все одноименные релизы в Клубе
    Время раздачи: 24/7 (до появления первых 3-5 скачавших)

    Онлайн видео Только чудо



    Только чудо / Тільки Диво (2019) IPTVRip [UKR] торрент скачать бесплатно
    Рейтинг →
     (голосов: 1, оценка 5/5, голосовать можно 1 раз )

    Другие торренты по теме:

  • Дмитрий Побединский | Чердак. Только физика, только хардкор! (2016) [FB2]
  • Дмитрий Побединский | Чердак. Только физика, только хардкор! (2016) [EPUB, MOBI]
  • Навител Навигатор v9.2.0.4 Full, RePack и другие - только программа навигации (21.09.2014) <Ru / Multi>
  • Только не с моей женой, не смей! / Not with My Wife, You Dont! (1966) DVDRip [H.264] [VO]
  • Юлия Атаева | 20 проверенных рецептов (которые прекрасно подходят для диеты Дюкана и не только). Выпуск 1 (2014) [PDF] скачать через торрент бесплатно
  • Книжная серия | Современная зарубежная фантастика. Только бестселлеры [4 книги] (2014) [FB2] скачать через торрент бесплатно
  • OsmAnd+ Maps & Navigation v1.9.2g - только программа навигации (08.11.2014) <Ru / Multi> скачать через торрент бесплатно
  • Навител Навигатор v9.3.0.195 Full и другие - только программа навигации (14.11.2014) <Ru / Multi> скачать через торрент бесплатно


    • Комментарии (0):

      Информация

      Информация

        Посетители, находящиеся в группе Гости, не могут оставлять комментарии в данной новости.

        ↓ Меню




        ↓ Опрос

        Вы добавили сайт в закладки?
        Да
        Нет


        Популярное