.
Авторизация | Регистрация
bitok.xyz
Торрент скачать бесплатно Фильмы торрент скачать Молодой Папа / The Young Pope (2016) BDRip (сезон 1, серии 1-10 из 10) Кравец, Greb&CGC торрент скачать бесплатно


    Молодой Папа / The Young Pope (2016) BDRip (сезон 1, серии 1-10 из 10) Кравец, Greb&CGC торрент скачать бесплатно

    Дата: 14-01-2020, 05:00 | .torrent скачали: 0

    Молодой Папа / The Young Pope (2016) BDRip (сезон 1, серии 1-10 из 10) Кравец, Greb&CGCПроизводство: Италия, Франция, Испания, Великобритания, США/Wildside, Haut et Court, Mediapro
    Жанр: драма
    Режиссер: Паоло Соррентино

    Актеры
    Джуд Лоу, Дайан Китон, Сильвио Орландо, Хавьер Камара, Скотт Шеперд, Сесиль Де Франс, Людивин Санье, Тони Берторелли, Джеймс Кромуэлл, Игнацио Олива и др.

    Описание

    История италоамериканца Ленни Белардо, избранного папой римским Пием XIII. Ленни — сложный человек, который ведет себя эксцентрично, а иногда и пугающе, и действия его на посту папы предугадать не так-то просто, отчего кардиналы плетут свои интриги против него.

    Возраст: 16+ (зрителям, достигшим 16 лет)
    Продолжительность: ~00: 55: 00 серия
    Качество видео: BDRip
    Перевод: Дублированный -студия Кравец-Рекордз по заказу телеканала Че!
    Многоголосый, профессиональный -Greb and Creative Group Company по заказу Amedia TV
    Видео: XviD, 720x400 (16: 9), ~1495 kbps
    Аудио 1: MP3, 2 ch, 128 kbps — русский (Кравец)
    Аудио 2: MP3, 2 ch, 128 kbps — русский (GrebCGC)
    Аудио 3: MP3, 2 ch, 128 kbps — английский
    Общее
    Полное имя : D: Молодой Папа (сезон любимого сериала 1) The Young Pope (2016) BDRip - KravecThe.Young.Pope.S01E02.BDRip.Rus.Eng.DV.Kravec.avi
    Формат : AVI
    Формат/Информация : Audio Video Interleave
    Размер файла : 750 Мбайт
    Продолжительность : 55 м. 15 с.
    Общий поток : 1898 Кбит/сек
    Название фильма : The.Young.Pope.S01E02.BDRip.Rus.Eng.DV.Kravec/NNM-Club
    Программа кодирования : VirtualDubModRus 1.5.10.2 (build 2542/release)
    Библиотека кодирования : VirtualDubMod build 2542/release
    Видео
    Идентификатор : 0
    Формат : MPEG-4 Visual
    Профиль формата : Advanced Simple@L5
    Настройки формата : BVOP2
    Параметр BVOP формата : 2
    Параметр QPel формата : Нет
    Параметр GMC формата : Без точки перехода
    Параметр матрицы формата : Default (H.263)
    Идентификатор кодека : XVID
    Идентификатор кодека/Подсказка : XviD
    Продолжительность : 55 м. 15 с.
    Битрейт : 1495 Кбит/сек
    Ширина : 720 пикселей
    Высота : 400 пикселей
    Соотношение сторон : 16: 9
    Частота кадров : 25, 000 кадров/сек
    Цветовое пространство : YUV
    Субдискретизация насыщенности : 4: 2: 0
    Битовая глубина : 8 бит
    Тип развёртки : Прогрессивная
    Метод сжатия : С потерями
    Бит/(Пиксели*Кадры) : 0.208
    Размер потока : 591 Мбайт (79%)
    Заголовок : Rip from DriverV for NNM-Club
    Библиотека кодирования : XviD 64
    Аудио #1
    Идентификатор : 1
    Формат : MPEG Audio
    Версия формата : Version 1
    Профиль формата : Layer 3
    Настройки формата : Joint stereo
    Идентификатор кодека : 55
    Идентификатор кодека/Подсказка : MP3
    Продолжительность : 55 м. 15 с.
    Вид битрейта : Постоянный
    Битрейт : 128 Кбит/сек
    Каналы : 2 канала
    Частота : 48, 0 КГц
    Метод сжатия : С потерями
    Размер потока : 50, 6 Мбайт (7%)
    Выравнивание : Соединение по промежуткам
    Продолжительность промежутка : 40 мс. (1, 00 видеокадр)
    Время предзагрузки промежутка : 504 мс.
    Заголовок : Rus.DUB.Kravec
    Аудио #2
    Идентификатор : 2
    Формат : MPEG Audio
    Версия формата : Version 1
    Профиль формата : Layer 3
    Настройки формата : Joint stereo
    Идентификатор кодека : 55
    Идентификатор кодека/Подсказка : MP3
    Продолжительность : 55 м. 15 с.
    Вид битрейта : Постоянный
    Битрейт : 128 Кбит/сек
    Каналы : 2 канала
    Частота : 48, 0 КГц
    Метод сжатия : С потерями
    Размер потока : 50, 6 Мбайт (7%)
    Выравнивание : Соединение по промежуткам
    Продолжительность промежутка : 40 мс. (1, 00 видеокадр)
    Время предзагрузки промежутка : 504 мс.
    Заголовок : Rus.MVO.Amedia
    Аудио #3
    Идентификатор : 3
    Формат : MPEG Audio
    Версия формата : Version 1
    Профиль формата : Layer 3
    Настройки формата : Joint stereo
    Идентификатор кодека : 55
    Идентификатор кодека/Подсказка : MP3
    Продолжительность : 55 м. 15 с.
    Вид битрейта : Постоянный
    Битрейт : 128 Кбит/сек
    Каналы : 2 канала
    Частота : 48, 0 КГц
    Метод сжатия : С потерями
    Размер потока : 50, 6 Мбайт (7%)
    Выравнивание : Соединение по промежуткам
    Продолжительность промежутка : 40 мс. (1, 00 видеокадр)
    Время предзагрузки промежутка : 504 мс.
    Заголовок : Eng


    Онлайн видео Молодой Папа



    Молодой Папа / The Young Pope (2016) BDRip (сезон 1, серии 1-10 из 10) Кравец, Greb&CGC торрент скачать бесплатно
    Рейтинг →
     (голосов: 1, оценка 4/5, голосовать можно 1 раз )

    Другие торренты по теме:

  • Молодой Папа / The Young Pope (2016) HDTV [H.264 / 720p-LQ] (Сезон 1, серия 1-8 из 10) NewStudio (обновляемая)
  • Молодой Папа / The Young Pope (2016) HDTVRip [H.264 / 720p-LQ] (сезон 1, серии 1-2 из 10) Jaskier (обновляемая)
  • Lele Marchitelli, VA - The Young Pope / Молодой Папа (Original Soundtrack) (2016) [MP3|320 кб / с]<Soundtrack>
  • Lele Marchitelli, VA - The Young Pope / Молодой Папа (Original Soundtrack) (2016) [FLAC|Lossless|tracks + .cue]<Soundtrack>
  • VA - The Young Pope / Молодой Папа (Unofficial Soundtrack) (2016) [MP3|320 кб / с]<Soundtrack>
  • Молодой Папа / The Young Pope (2016) HDTVRip [H.264 / 720p-LQ] (сезон 1, серии 1-10 из 10) ATV


    • Комментарии (0):

      Информация

      Информация

        Посетители, находящиеся в группе Гости, не могут оставлять комментарии в данной новости.

        ↓ Меню




        ↓ Опрос

        Вы добавили сайт в закладки?
        Да
        Нет


        Популярное