Подписывайся на наш канал в Telegram https://t.me/torrentok и получи доступ к торрентам без ограничений!
.
Авторизация | Регистрация
bitok.xyz
Торрент скачать бесплатно Фильмы торрент скачать Томирис / Tomiris (2019) WEB-DLRip торрент скачать бесплатно


    Томирис / Tomiris (2019) WEB-DLRip торрент скачать бесплатно

    Дата: 18-01-2020, 05:00 | .torrent скачали: 18

    Томирис / Tomiris (2019) WEB-DLRipПроизводство: Казахстан/Kazakhfilm Studios, Sataifilm
    Жанр: драма, история
    Режиссер: Акан Сатаев
    Продюсер: Алия Назарбаева, Светлана Нам, Анна Чакиртова

    Актеры
    Гасан Масуд, Мурат Бисенбин, Берик Айтжанов, Адиль Ахметов, Азамат Сатыбалды, Аян Утепберген, Асылхан Толепов, Еркебулан Дайыров, Илез Бадургов, Альмира Турсын

    Описание

    Среди древних народов, населявших просторы Евразии, особо выделялись племена, называющие себя саками. Это были кочевники и великие воины степи. Начинается история с краткого жизнеописания отца Томирис — царя Спаргапа. Спаргап, имея право на царский трон, вовлечён в войну между родами саков — массагетов. Влиятельные вожди, среди которых выделяются алчные и хитроумные Каваз и Куртун, не спешат объединяться под единой властью, отстаивая свои интересы. Спаргап мечом и словом пытается объединить степные племена. В это тревожное время у него рождается дочь — Томирис. Её мать, Бопай, которую Спаргап очень любил, умирает при родах. Забота и воспитание ложатся на него, и Томирис с раннего возраста познаёт тяготы походной жизни и воинского быта.
    Вероломные Каваз и Куртун устраивают заговор в результате чего Спаргап погибает. В степи опять наступает раздор и междоусобица. Маленькой Томирис удаётся уйти от убийц с верными людьми Спаргапа. За её голову негласно объявлена награда.
    Томирис растет, скрываясь в лесах и живя охотой. Теперь ее цель вернуть законный трон и объединить степные племена. Но Томирис и не подозревает, что ей придется столкнуться с более могущественной угрозой, которая может стереть с лица земли всех саков…

    Дата мировой премьеры: 1 октября 2019
    Релиз от: albarina
    Продолжительность: 02: 10: 44
    Качество видео: WEB-DLRip
    Язык озвучки: Русский, казахский
    Субтитры: Отсутствуют
    Видео: Xvid, 704x400, ~1917 Kbps
    Аудио: MP3, 2 ch, 192 Kbps
    General
    Complete name : H: Tomiris.2019.WEBDLRip.avi
    Format : AVI
    Format/Info : Audio Video Interleave
    Format profile : OpenDML
    File size : 1.94 GiB
    Duration : 2 h 10 min
    Overall bit rate : 2 121 kb/s
    Writing application : Lavf56.36.100
    Video
    ID : 0
    Format : xvid
    Codec ID : xvid
    Duration : 2 h 10 min
    Bit rate : 1 917 kb/s
    Width : 720 pixels
    Height : 400 pixels
    Display aspect ratio : 16: 9
    Frame rate : 25.000 FPS
    Scan type : Progressive
    Bits/(Pixel*Frame) : 0.266
    Stream size : 1.75 GiB (90%)
    Audio
    ID : 1
    Format : MPEG Audio
    Format version : Version 1
    Format profile : Layer 3
    Format settings : Joint stereo/MS Stereo
    Codec ID : 55
    Codec ID/Hint : MP3
    Duration : 2 h 10 min
    Bit rate mode : Constant
    Bit rate : 192 kb/s
    Channel(s) : 2 channels
    Sampling rate : 44.1 kHz
    Compression mode : Lossy
    Stream size : 180 MiB (9%)
    Alignment : Aligned on interleaves
    Interleave, duration : 26 ms (0.65 video frame)
    Interleave, preload duratio : 130 ms

    Скриншоты для ознакомления



    Все одноименные релизы в Клубе
    Время раздачи: с 7: 00 до 23: 00 МСК (до появления первых 3-5 скачавших)

    Онлайн видео Томирис



    Томирис / Tomiris (2019) WEB-DLRip торрент скачать бесплатно
    Рейтинг →
     (голосов: 1, оценка 4/5, голосовать можно 1 раз )

    Другие торренты по теме:



      Комментарии (0):

      Информация

      Информация

        Посетители, находящиеся в группе Гости, не могут оставлять комментарии в данной новости.

        ↓ Меню




        ↓ Опрос

        Вы добавили сайт в закладки?
        Да
        Нет


        Популярное