.
Авторизация | Регистрация
bitok.xyz
Торрент скачать бесплатно Фильмы торрент скачать Коллекционер / The Collector (2009) BDRip [H.265 / 1080p] [10-bit] торрент скачать бесплатно


    Коллекционер / The Collector (2009) BDRip [H.265 / 1080p] [10-bit] торрент скачать бесплатно

    Дата: 27-01-2020, 05:00 | .torrent скачали: 0

    Коллекционер / The Collector (2009) BDRip [H.265 / 1080p] [10-bit]Производство: США/LD Entertainment, Fortress Features, Imaginarium Entertainment Group
    Жанр: ужасы, триллер
    Режиссер: Маркус Данстэн

    Актеры
    Джош Стюарт, Майкл Рейли Бурк, Андреа Рот, Хуан Фернандес, Карли Скотт Коллинз, Даниелла Алонсо, Хейли Пуллос, Уильям Прэйл, Дайан Голднер, Алекс Фельдман

    Описание
    Бывший домушник Аркин забирается в загородный коттедж своего начальника с тем, чтобы ограбив его, выплатить долг бывшей жене. Однако попав внутрь, он вскоре понимает, что дом и его обитатели уже захвачены крайне неприятным типом в плюшевой маске с полным набором пыточных инструментов времен Испанской инквизиции, после чего предпринимает отчаянную попытку спасти семью, которую он изначально собирался обчистить.

    Возраст: 18+ (зрителям, достигшим 18 лет. запрещено для детей)
    Рейтинг MPAA: R (лицам до 17 лет обязательно присутствие взрослого)
    Релиз от: M@kSIMus (HEVC-CLUB)
    Продолжительность: 01: 29: 51
    Качество видео: BDRip
    Перевод: Дублированный
    Субтитры: Русские, английские
    Видео: HEVC/H.265, 1920x800, ~16, 2 Mbps
    Аудио 1: AC3, 6 ch, 384 Kbps - Русский, дублированный
    Аудио 2: DTS, 6 ch, 1509 Kbps - Английский
    Общее
    Уникальный идентификатор : 50760870549083954276402524059572150998 (0x26303024A89435221FC7EF1E3368A2D6)
    Полное имя : R: 1. The Collector (2009) BDRip 1080p HEVC 10 bit.mkv
    Формат : Matroska
    Версия формата : Version 4/Version 2
    Размер файла : 11, 4 Гбайт
    Продолжительность : 1 ч. 29 м.
    Общий поток : 18, 1 Мбит/сек
    Название фильма : The Collector (2009) Encoded_by_M@kSIMus
    Дата кодирования : UTC 2020-01-19 15: 39: 07
    Программа кодирования : mkvmerge v40.0.0 (\'Old Town Road + Pony\') 64-bit
    Библиотека кодирования : libebml v1.3.9 + libmatroska v1.5.2
    Обложка : Yes
    Attachments : cover1.jpg
    Видео
    Идентификатор : 1
    Формат : HEVC
    Формат/Информация : High Efficiency Video Coding
    Профиль формата : Main10@L4.1@High
    Идентификатор кодека : V_MPEGH/ISO/HEVC
    Продолжительность : 1 ч. 29 м.
    Битрейт : 16, 2 Мбит/сек
    Ширина : 1920 пикселей
    Высота : 800 пикселей
    Соотношение сторон : 2, 40: 1
    Режим частоты кадров : Постоянный
    Частота кадров : 24, 000 кадра/сек
    Цветовое пространство : YUV
    Субдискретизация насыщенности : 4: 2: 0
    Битовая глубина : 10 бит
    Бит/(Пиксели*Кадры) : 0.441
    Размер потока : 10, 2 Гбайт (90%)
    Библиотека кодирования : x265 3.2+5-354901970679: Windowsclang 8.0.164 bit 10bit
    Настройки программы : cpuid=1049583/frame-threads=5/numa-pools=4/wpp/no-pmode/no-pme/no-psnr/no-ssim/log-level=3/input-csp=1/input-res=1920x800/interlace=0/total-frames=0/level-idc=41/high-tier=1/uhd-bd=0/ref=5/allow-non-conformance/no-repeat-t_heads/annexb/no-aud/no-hrd/info/hash=0/no-temporal-layers/open-gop/min-keyint=24/keyint=240/gop-lookahead=0/bframes=9/b-adapt=2/b-pyramid/bframe-bias=0/rc-lookahead=40/lookahead-slices=5/scenecut=40/radl=0/no-splice/no-intra-refresh/ctu=32/min-cu-size=8/rect/no-amp/max-tu-size=32/tu-inter-depth=4/tu-intra-depth=4/limit-tu=1/rdoq-level=1/dynamic-rd=0.00/no-ssim-rd/signhide/no-tskip/nr-intra=0/nr-inter=0/no-constrained-intra/no-strong-intra-smoothing/max-merge=5/limit-refs=1/no-limit-modes/me=3/subme=7/merange=57/temporal-mvp/no-frame-dup/no-hme/weightp/no-weightb/no-analyze-src-pics/deblock=-3: -3/no-sao/no-sao-non-deblock/rd=3/selective-sao=0/early-skip/no-rskip/no-fast-intra/no-tskip-fast/no-cu-lossless/b-intra/no-splitrd-skip/rdpenalty=0/psy-rd=2.00/psy-rdoq=1.00/no-rd-refine/no-lossless/cbqpoffs=0/crqpoffs=0/rc=crf/crf=22.0/qcomp=0.60/qpstep=4/stats-write=0/stats-read=0/vbv-maxrate=50000/vbv-bufsize=50000/vbv-init=0.9/crf-max=0.0/crf-min=0.0/ipratio=1.40/pbratio=1.30/aq-mode=3/aq-strength=1.00/no-cutree/zone-count=0/no-strict-cbr/qg-size=32/no-rc-grain/qpmax=69/qpmin=0/no-const-vbv/sar=1/overscan=0/videoformat=5/range=0/colorprim=1/transfer=1/colormatrix=1/chromaloc=0/display-window=0/cll=0, 0/min-luma=0/max-luma=1023/log2-max-poc-lsb=8/vui-timing-info/vui-hrd-info/slices=1/no-opt-qp-pps/no-opt-ref-list-length-pps/no-multi-pass-opt-rps/scenecut-bias=0.05/no-opt-cu-delta-qp/no-aq-motion/no-hdr/no-hdr-opt/no-dhdr10-opt/no-idr-recovery-sei/analysis-reuse-level=5/scale-factor=0/refine-intra=0/refine-inter=0/refine-mv=1/refine-ctu-distortion=0/no-limit-sao/ctu-info=0/no-lowpass-dct/refine-analysis-type=0/copy-pic=1/max-ausize-factor=1.0/no-dynamic-refine/no-single-sei/no-hevc-aq/no-svt/no-field/qp-adaptation-range=1.00
    Язык : English
    Default : Да
    Forced : Нет
    Цветовой диапазон : Limited
    Основные цвета : BT.709
    Характеристики трансфера : BT.709
    Коэффициенты матрицы : BT.709
    Аудио #1
    Идентификатор : 2
    Формат : AC-3
    Формат/Информация : Audio Coding 3
    Идентификатор кодека : A_AC3
    Продолжительность : 1 ч. 29 м.
    Вид битрейта : Постоянный
    Битрейт : 384 Кбит/сек
    Каналы : 6 каналов
    Расположение каналов : Front: L C R, Side: L R, LFE
    Частота : 48, 0 КГц
    Частота кадров : 31, 250 кадров/сек (1536 SPF)
    Битовая глубина : 16 бит
    Метод сжатия : С потерями
    Размер потока : 247 Мбайт (2%)
    Заголовок : Дубляж
    Язык : Russian
    ServiceKind/String : Complete Main
    Default : Да
    Forced : Нет
    Аудио #2
    Идентификатор : 3
    Формат : DTS
    Формат/Информация : Digital Theater Systems
    Идентификатор кодека : A_DTS
    Продолжительность : 1 ч. 29 м.
    Вид битрейта : Постоянный
    Битрейт : 1509 Кбит/сек
    Каналы : 6 каналов
    Расположение каналов : Front: L C R, Side: L R, LFE
    Частота : 48, 0 КГц
    Частота кадров : 93, 750 кадра/сек (512 SPF)
    Битовая глубина : 24 бит
    Метод сжатия : С потерями
    Размер потока : 970 Мбайт (8%)
    Заголовок : Оригинал
    Язык : English
    Default : Нет
    Forced : Нет
    Текст #1
    Идентификатор : 4
    Формат : UTF-8
    Идентификатор кодека : S_TEXT/UTF8
    Идентификатор кодека/Информация : UTF-8 Plain Text
    Продолжительность : 1 ч. 28 м.
    Битрейт : 27 бит/сек
    ElementCount : 362
    Размер потока : 18, 0 Кбайт (0%)
    Заголовок : Full
    Язык : Russian
    Default : Нет
    Forced : Нет
    Текст #2
    Идентификатор : 5
    Формат : UTF-8
    Идентификатор кодека : S_TEXT/UTF8
    Идентификатор кодека/Информация : UTF-8 Plain Text
    Продолжительность : 1 ч. 23 м.
    Битрейт : 17 бит/сек
    ElementCount : 406
    Размер потока : 10, 9 Кбайт (0%)
    Заголовок : Full
    Язык : English
    Default : Нет
    Forced : Нет
    Меню
    00: 00: 00.000 : en: Chapter 00
    00: 04: 45.451 : en: Chapter 01
    00: 10: 47.480 : en: Chapter 02
    00: 13: 15.628 : en: Chapter 03
    00: 16: 13.263 : en: Chapter 04
    00: 19: 56.486 : en: Chapter 05
    00: 25: 03.835 : en: Chapter 06
    00: 29: 08.079 : en: Chapter 07
    00: 34: 54.926 : en: Chapter 08
    00: 41: 55.763 : en: Chapter 09
    00: 46: 55.229 : en: Chapter 10
    00: 52: 57.007 : en: Chapter 11
    01: 01: 31.896 : en: Chapter 12
    01: 06: 31.779 : en: Chapter 13
    01: 14: 24.501 : en: Chapter 14
    01: 19: 04.448 : en: Chapter 15


    Онлайн видео Коллекционер



    Коллекционер / The Collector (2009) BDRip [H.265 / 1080p] [10-bit] торрент скачать бесплатно
    Рейтинг →
     (голосов: 1, оценка 4/5, голосовать можно 1 раз )

    Другие торренты по теме:

  • Коллекционер: Дилогия / The Collector: Dilogy (2009-2012) Blu-ray [2в1] [H.264 / 1080p] скачать через торрент бесплатно
  • Коллекционер: Дилогия / The Collector: Dilogy (2009-2012) BDRip [H.264 / 720p] скачать через торрент бесплатно
  • Коллекционер смертей / The Death Collector / Family Enforcer (1976) VHSRip [EN] скачать через торрент бесплатно


    • Комментарии (0):

      Информация

      Информация

        Посетители, находящиеся в группе Гости, не могут оставлять комментарии в данной новости.

        ↓ Меню




        ↓ Опрос

        Вы добавили сайт в закладки?
        Да
        Нет


        Популярное