.
Авторизация | Регистрация
bitok.xyz
Торрент скачать бесплатно Фильмы торрент скачать Плохие парни 2 / Bad Boys II (2003) UHD BDRip [H.265 / 2160p] [4K, HDR, 10-bit] [PR] торрент скачать бесплатно


    Плохие парни 2 / Bad Boys II (2003) UHD BDRip [H.265 / 2160p] [4K, HDR, 10-bit] [PR] торрент скачать бесплатно

    Дата: 27-01-2020, 05:00 | .torrent скачали: 0

    Плохие парни 2 / Bad Boys II (2003) UHD BDRip [H.265 / 2160p] [4K, HDR, 10-bit] [PR]Производство: США/Columbia Pictures Corporation, Don Simpson/Jerry Bruckheimer Films
    Жанр: Боевик, Приключения, Комедия
    Режиссер: Майкл Бэй

    Актеры
    Уилл Смит, Мартин Лоуренс, Гэбриэл Юнион, Хорди Молья, Петер Стормаре, Тереза Рэндл, Джо Пантольяно, Майкл Шеннон, Джон Седа, Юл Васкес

    Описание

    Детективы отдела по борьбе с незаконным оборотом наркотиков Майк Лоури и Маркус Бэрнетт получают задание расследовать схему доставки нового наркотика в Майами. Это расследование выводит их на искуссный заговор, сплетенный местным наркобароном с целью поставить под контроль всю торговлю наркотиками в городе. По чистой случайности про эти амбициозные планы узнают и остальные игроки нелегального рынка, в результате чего вспыхивает настоящая война. Несмотря на это, Майку и Маркусу удается успешно справляться с натиском наркомафии и сажать дилеров за решетку. Но ситуация начинает выходить из-под контроля, когда Майк не на шутку увлекается сестрой Маркуса, Сидни. Торжество закона висит на волоске - ведь вместо выполнения спецзаданий детективы начинают выяснять отношения между собой…

    Возраст: 18+ (зрителям, достигшим 18 лет. запрещено для детей)
    Рейтинг MPAA: R (лицам до 17 лет обязательно присутствие взрослого)
    Продолжительность: 02: 26: 41
    Качество видео: UHD BDRip
    Перевод: Дублированный
    Субтитры: русские, английские
    Видео: HEVC/H.265, 3840x1608, ~29.9 mbps
    Аудио 1: AC3, 6 ch, 448 kbps, Русский (DUB)
    Аудио 2: DTS, 6 ch, 1509 kbps, Английский
    Аудио 3: AC3, 6 ch, 640 kbps, Английский
    Диск на Blu-ray.com
    Просмотр 4K HDR-контента на ПК
    Общее
    Уникальный идентификатор : 208121662727183883382102348143416315075 (0x9C92C63414C297C9AA83C9FB33D80CC3)
    Полное имя : D: FILMSZALIVBad.Boys.II.2003.2160p.UHD.4K.HDR.BDRip.mkv
    Формат : Matroska
    Версия формата : Version 4
    Размер файла : 33, 5 Гбайт
    Продолжительность : 2 ч. 26 м.
    Общий поток : 32, 6 Мбит/сек
    Название фильма : Bad.Boys.II.2003.INTERNAL.2160p.UHD.BluRay.X265.10bit.HDR-SpaceHD13
    Дата кодирования : UTC 2020-01-20 05: 45: 37
    Программа кодирования : mkvmerge v8.2.0 (\'World of Adventure\') 64bit
    Библиотека кодирования : libebml v1.3.1 + libmatroska v1.4.2
    Видео
    Идентификатор : 1
    Формат : HEVC
    Формат/Информация : High Efficiency Video Coding
    Профиль формата : Main10@L5.1@High
    HDR_Format/String : SMPTE ST 2086, HDR10 compatible
    Идентификатор кодека : V_MPEGH/ISO/HEVC
    Продолжительность : 2 ч. 26 м.
    Битрейт : 29, 9 Мбит/сек
    Ширина : 3840 пикселей
    Высота : 1608 пикселей
    Соотношение сторон : 2, 40: 1
    Режим частоты кадров : Постоянный
    Частота кадров : 23, 976 (24000/1001) кадра/сек
    Цветовое пространство : YUV
    Субдискретизация насыщенности : 4: 2: 0 (Type 2)
    Битовая глубина : 10 бит
    Бит/(Пиксели*Кадры) : 0.202
    Размер потока : 30, 7 Гбайт (92%)
    Заголовок : Bad.Boys.II.2003.INTERNAL.2160p.UHD.BluRay.X265.10bit.HDR-SpaceHD13
    Библиотека кодирования : x265 2.8+10-703eade86b53: WindowsMSVC 191464 bit 10bit
    Настройки программы : cpuid=1111039/frame-threads=5/numa-pools=36/wpp/no-pmode/no-pme/no-psnr/no-ssim/log-level=2/input-csp=1/input-res=3840x1608/interlace=0/total-frames=211128/level-idc=51/high-tier=1/uhd-bd=0/ref=4/no-allow-non-conformance/repeat-t_heads/annexb/aud/hrd/info/hash=0/no-temporal-layers/no-open-gop/min-keyint=1/keyint=24/gop-lookahead=0/bframes=4/b-adapt=2/b-pyramid/bframe-bias=0/rc-lookahead=25/lookahead-slices=4/scenecut=40/radl=0/no-intra-refresh/ctu=64/min-cu-size=8/rect/no-amp/max-tu-size=32/tu-inter-depth=1/tu-intra-depth=1/limit-tu=0/rdoq-level=2/dynamic-rd=0.00/no-ssim-rd/signhide/no-tskip/nr-intra=0/nr-inter=0/no-constrained-intra/no-strong-intra-smoothing/max-merge=3/limit-refs=3/limit-modes/me=3/subme=3/merange=57/temporal-mvp/weightp/no-weightb/no-analyze-src-pics/deblock=-3: -3/no-sao/no-sao-non-deblock/rd=4/no-early-skip/rskip/no-fast-intra/no-tskip-fast/no-cu-lossless/no-b-intra/no-splitrd-skip/rdpenalty=0/psy-rd=2.00/psy-rdoq=1.00/no-rd-refine/no-lossless/cbqpoffs=0/crqpoffs=0/rc=crf/crf=19.5/qcomp=0.60/qpstep=4/stats-write=0/stats-read=0/vbv-maxrate=160000/vbv-bufsize=160000/vbv-init=0.9/crf-max=0.0/crf-min=0.0/ipratio=1.40/pbratio=1.30/aq-mode=1/aq-strength=1.00/cutree/zone-count=0/no-strict-cbr/qg-size=32/no-rc-grain/qpmax=69/qpmin=0/no-const-vbv/sar=1/overscan=0/videoformat=5/range=0/colorprim=9/transfer=16/colormatrix=9/chromaloc=1/chromaloc-top=2/chromaloc-bottom=2/display-window=0/master-display=G(13250, 34500)B(7500, 3000)R(34000, 16000)WP(15635, 16450)L(40000000, 50)/max-cll=10000, 1367/min-luma=0/max-luma=1023/log2-max-poc-lsb=8/vui-timing-info/vui-hrd-info/slices=1/no-opt-qp-pps/no-opt-ref-list-length-pps/no-multi-pass-opt-rps/scenecut-bias=0.05/no-opt-cu-delta-qp/no-aq-motion/hdr/hdr-opt/no-dhdr10-opt/no-idr-recovery-sei/analysis-reuse-level=5/scale-factor=0/refine-intra=0/refine-inter=0/refine-mv=0/no-limit-sao/ctu-info=0/no-lowpass-dct/refine-mv-type=0/copy-pic=1/max-ausize-factor=1.0/no-dynamic-refine/no-single-sei
    Default : Да
    Forced : Нет
    Цветовой диапазон : Limited
    Основные цвета : BT.2020
    Характеристики трансфера : PQ
    Коэффициенты матрицы : BT.2020 non-constant
    MasteringDisplay_ColorPrimaries : Display P3
    MasteringDisplay_Luminance : min: 0.0050 cd/m2, max: 4000 cd/m2
    MaxCLL : 10000 cd/m2
    MaxFALL : 1367 cd/m2
    Аудио #1
    Идентификатор : 2
    Формат : AC-3
    Формат/Информация : Audio Coding 3
    Коммерческое название : Dolby Digital
    Идентификатор кодека : A_AC3
    Продолжительность : 2 ч. 26 м.
    Вид битрейта : Постоянный
    Битрейт : 448 Кбит/сек
    Каналы : 6 каналов
    ChannelLayout : L R C LFE Ls Rs
    Частота : 48, 0 КГц
    Частота кадров : 31, 250 кадров/сек (1536 SPF)
    Метод сжатия : С потерями
    Задержка видео : 1 с. 0 мс.
    Размер потока : 470 Мбайт (1%)
    Заголовок : Bad.Boys.II.2003.INTERNAL.2160p.UHD.BluRay.X265.10bit.HDR-SpaceHD13Dub
    Язык : Russian
    ServiceKind/String : Complete Main
    Default : Да
    Forced : Нет
    Аудио #2
    Идентификатор : 3
    Формат : DTS
    Формат/Информация : Digital Theater Systems
    Идентификатор кодека : A_DTS
    Продолжительность : 2 ч. 26 м.
    Вид битрейта : Постоянный
    Битрейт : 1509 Кбит/сек
    Каналы : 6 каналов
    ChannelLayout : C L R Ls Rs LFE
    Частота : 48, 0 КГц
    Частота кадров : 93, 750 кадра/сек (512 SPF)
    Битовая глубина : 16 бит
    Метод сжатия : С потерями
    Задержка видео : 1 с. 0 мс.
    Размер потока : 1, 55 Гбайт (5%)
    Заголовок : Bad.Boys.II.2003.INTERNAL.2160p.UHD.BluRay.X265.10bit.HDR-SpaceHD13
    Язык : English
    Default : Нет
    Forced : Нет
    Аудио #3
    Идентификатор : 4
    Формат : AC-3
    Формат/Информация : Audio Coding 3
    Коммерческое название : Dolby Digital
    Идентификатор кодека : A_AC3
    Продолжительность : 2 ч. 26 м.
    Вид битрейта : Постоянный
    Битрейт : 640 Кбит/сек
    Каналы : 6 каналов
    ChannelLayout : L R C LFE Ls Rs
    Частота : 48, 0 КГц
    Частота кадров : 31, 250 кадров/сек (1536 SPF)
    Метод сжатия : С потерями
    Размер потока : 672 Мбайт (2%)
    Заголовок : Bad.Boys.II.2003.INTERNAL.2160p.UHD.BluRay.X265.10bit.HDR-SpaceHD13
    Язык : English
    ServiceKind/String : Complete Main
    Default : Нет
    Forced : Нет
    Текст #1
    Идентификатор : 5
    Формат : PGS
    Режим смешивания : zlib
    Идентификатор кодека : S_HDMV/PGS
    Идентификатор кодека/Информация : Picture based subtitle format used on BDs/HD-DVDs
    Продолжительность : 5 с. 520 мс.
    Битрейт : 24, 6 Кбит/сек
    ElementCount : 4
    Размер потока : 16, 6 Кбайт (0%)
    Заголовок : English Forced
    Язык : English
    Default : Да
    Forced : Нет
    Текст #2
    Идентификатор : 6
    Формат : PGS
    Режим смешивания : zlib
    Идентификатор кодека : S_HDMV/PGS
    Идентификатор кодека/Информация : Picture based subtitle format used on BDs/HD-DVDs
    Продолжительность : 2 ч. 25 м.
    Битрейт : 19, 3 Кбит/сек
    ElementCount : 4512
    Размер потока : 20, 0 Мбайт (0%)
    Заголовок : English SDH
    Язык : English
    Default : Нет
    Forced : Нет
    Текст #3
    Идентификатор : 7
    Формат : PGS
    Режим смешивания : zlib
    Идентификатор кодека : S_HDMV/PGS
    Идентификатор кодека/Информация : Picture based subtitle format used on BDs/HD-DVDs
    Продолжительность : 2 ч. 20 м.
    Битрейт : 17, 2 Кбит/сек
    ElementCount : 3824
    Размер потока : 17, 2 Мбайт (0%)
    Язык : English
    Default : Нет
    Forced : Нет
    Текст #4
    Идентификатор : 8
    Формат : PGS
    Режим смешивания : zlib
    Идентификатор кодека : S_HDMV/PGS
    Идентификатор кодека/Информация : Picture based subtitle format used on BDs/HD-DVDs
    Продолжительность : 2 ч. 25 м.
    Битрейт : 19, 3 Кбит/сек
    ElementCount : 4512
    Размер потока : 20, 0 Мбайт (0%)
    Язык : English
    Default : Нет
    Forced : Нет
    Текст #5
    Идентификатор : 9
    Формат : PGS
    Режим смешивания : zlib
    Идентификатор кодека : S_HDMV/PGS
    Идентификатор кодека/Информация : Picture based subtitle format used on BDs/HD-DVDs
    Продолжительность : 5 с. 520 мс.
    Битрейт : 24, 6 Кбит/сек
    ElementCount : 4
    Размер потока : 16, 6 Кбайт (0%)
    Язык : English
    Default : Нет
    Forced : Нет
    Текст #6
    Идентификатор : 10
    Формат : PGS
    Режим смешивания : zlib
    Идентификатор кодека : S_HDMV/PGS
    Идентификатор кодека/Информация : Picture based subtitle format used on BDs/HD-DVDs
    Продолжительность : 2 ч. 20 м.
    Битрейт : 17, 2 Кбит/сек
    ElementCount : 3832
    Размер потока : 17, 2 Мбайт (0%)
    Язык : English
    Default : Нет
    Forced : Нет
    Текст #7
    Идентификатор : 11
    Формат : PGS
    Режим смешивания : zlib
    Идентификатор кодека : S_HDMV/PGS
    Идентификатор кодека/Информация : Picture based subtitle format used on BDs/HD-DVDs
    Продолжительность : 2 ч. 21 м.
    Битрейт : 17, 6 Кбит/сек
    ElementCount : 3964
    Размер потока : 17, 8 Мбайт (0%)
    Язык : Russian
    Default : Нет
    Forced : Нет
    Меню
    00: 00: 00.000 : en: 00: 00: 00.000
    00: 11: 05.498 : en: 00: 11: 05.498
    00: 21: 55.397 : en: 00: 21: 55.397
    00: 39: 55.768 : en: 00: 39: 55.768
    00: 45: 28.684 : en: 00: 45: 28.684
    00: 53: 28.789 : en: 00: 53: 28.789
    00: 59: 02.247 : en: 00: 59: 02.247
    01: 06: 27.066 : en: 01: 06: 27.066
    01: 11: 29.619 : en: 01: 11: 29.619
    01: 17: 54.169 : en: 01: 17: 54.169
    01: 30: 28.131 : en: 01: 30: 28.131
    01: 37: 39.228 : en: 01: 37: 39.228
    01: 45: 54.765 : en: 01: 45: 54.765
    01: 56: 47.626 : en: 01: 56: 47.626
    02: 05: 08.584 : en: 02: 05: 08.584
    02: 16: 07.701 : en: 02: 16: 07.701

    Скриншоты для ознакомления



    Все одноименные релизы в Клубе
    Время раздачи: c 5 до 19 мск (до появления первых 3-5 скачавших)

    Онлайн видео Плохие парни 2



    Плохие парни 2 / Bad Boys II (2003) UHD BDRip [H.265 / 2160p] [4K, HDR, 10-bit] [PR] торрент скачать бесплатно
    Рейтинг →
     (голосов: 1, оценка 4/5, голосовать можно 1 раз )

    Другие торренты по теме:

  • Плохие парни / Bad Boys (1995) BDRip [h.264]
  • Плохие парни 2 / Bad Boys II (2003) WEB-DLRip [h.264]
  • Плохие парни 2 / Bad Boys II (2003) BDRip [H.264 / 1080р] скачать через торрент бесплатно
  • Плохие парни 2 / Bad Boys II (2003) BDRemux [H.264 / 1080р] скачать через торрент бесплатно
  • Плохие парни 2 / Bad Boys II (2003) BDRip [H.264 / 720р] скачать через торрент бесплатно
  • Плохие парни / Bad Boys (1995-2003) BDRemux [H.264 / 1080p] [4K Remastered] [Дилогия] скачать через торрент бесплатно
  • Плохие парни / Bad Boys (1995) BDRip [H.264] [Remastered] скачать через торрент бесплатно
  • Плохие парни 2 / Bad Boys II (2003) BDRip [H.264] [Remastered] скачать через торрент бесплатно


    • Комментарии (0):

      Информация

      Информация

        Посетители, находящиеся в группе Гости, не могут оставлять комментарии в данной новости.

        ↓ Меню




        ↓ Опрос

        Вы добавили сайт в закладки?
        Да
        Нет


        Популярное