.
Авторизация | Регистрация
bitok.xyz
Торрент скачать бесплатно Фильмы торрент скачать Генеральская дочь / The Generals Daughter (1999) WEBRip [H.264 / 1080p] торрент скачать бесплатно


    Генеральская дочь / The Generals Daughter (1999) WEBRip [H.264 / 1080p] торрент скачать бесплатно

    Дата: 27-01-2020, 05:00 | .torrent скачали: 0

    Генеральская дочь / The Generals Daughter (1999) WEBRip [H.264 / 1080p]Производство: США, Германия/Hollywood Licensing Group, Mace Neufeld Productions, MFP Munich Film Partners GmbH Company I. Produktions KG
    Жанр: Триллер, Драма, Криминал
    Режиссер: Саймон Уэст

    Актеры
    Джон Траволта, Мэделин Стоу, Джеймс Кромуэлл, Тимоти Хаттон, Лесли Стефансон, Дэниэл фон Барген, Кларенс Уильямс III, Джеймс Вудс, Питер Вайретер, Марк Бун Джуниор

    Описание

    Убита молодая и красивая женщина, офицер ВС США, дочь прославленного генерала. Расследование загадочного убийства поручают военному следователю, опытному профессионалу Полу Бреннеру. Постепенно тёмное дело начинает обрастать жуткими подробностями. Чтобы найти убийцу, Бреннер должен распутать клубок страшных тайн и скрытых ужасных страстей.
    Фильм поставлен по роману Нельсона Демиля Генеральская дочь.

    Возраст: 18+ (зрителям, достигшим 18 лет. запрещено для детей)
    Рейтинг MPAA: R (лицам до 17 лет обязательно присутствие взрослого)
    Релиз от: Web4HD
    Продолжительность: 01: 56: 27
    Качество видео: WEBRip
    Перевод: Многоголосый профессиональный x4, Двуголосый профессиональный, Авторский x3
    Субтитры: русские (полные), английские (полные, для слабослышащих)
    Видео: AVC/H.264, 1920x800, ~9561 Kbps
    Аудио 1: E-AC3, 6 ch, 640 Kbps (английский)
    Аудио 2: AC3, 2 ch, 192 Kbps (русский, многоголосый - НТВ+)
    Аудио 3: AC3, 6 ch, 448 Kbps (русский, многоголосый)
    Аудио 4: AC3, 6 ch, 384 Kbps (русский, двуголосый)
    Аудио 5: AC3, 6 ch, 384 Kbps (русский, многоголосый)
    Аудио 6: AC3, 2 ch, 192 Kbps (русский, многоголосый - Премьер)
    Аудио 7: AC3, 6 ch, 448 Kbps (русский, одноголосый - Ю. Живов)
    Аудио 8: AC3, 2 ch, 192 Kbps (русский, одноголосый - С. Визгунов)
    Аудио 9: AC3, 2 ch, 192 Kbps (русский, одноголосый - А. Дольский)
    Общее
    Уникальный идентификатор : 50025931930575839714540204194614525981 (0x25A2A4DF280DCA17D8099C680074C01D)
    Полное имя : S: all_moviesФильмыИностранныеГенеральская дочь (The General\'s Daughter).mkv
    Формат : Matroska
    Версия формата : Version 4
    Размер файла : 10, 3 Гбайт
    Продолжительность : 1 ч. 56 м.
    Режим общего битрейта : Переменный
    Общий поток : 12, 6 Мбит/сек
    Название фильма : Генеральская дочь/The General\'s Daughter
    Программа кодирования : mkvmerge v34.0.0 (\'Sight and Seen\') 64-bit
    Библиотека кодирования : libebml v1.3.7 + libmatroska v1.5.0
    Attachments : poster.jpg
    Видео
    Идентификатор : 1
    Формат : AVC
    Формат/Информация : Advanced Video Codec
    Профиль формата : High@L4
    Настройки формата : CABAC/4 Ref Frames
    Параметр CABAC формата : Да
    Параметр ReFrames формата : 4 кадра
    Идентификатор кодека : V_MPEG4/ISO/AVC
    Продолжительность : 1 ч. 56 м.
    Вид битрейта : Переменный
    Битрейт : 9561 Кбит/сек
    Максимальный битрейт : 15, 0 Мбит/сек
    Ширина : 1920 пикселей
    Высота : 800 пикселей
    Высота оригинала : 1080 пикселей
    Соотношение сторон : 2, 40: 1
    Соотношение сторон в оригинале : 16: 9
    Режим частоты кадров : Постоянный
    Частота кадров : 23, 976 (24000/1001) кадра/сек
    Цветовое пространство : YUV
    Субдискретизация насыщенности : 4: 2: 0
    Битовая глубина : 8 бит
    Тип развёртки : Прогрессивная
    Бит/(Пиксели*Кадры) : 0.260
    Размер потока : 7, 77 Гбайт (76%)
    Заголовок : The.Generals.Daughter.1999.1080p.WEBRip.DD5.1.x264-Web4HD
    Библиотека кодирования : x264 core 148 r2623 d5b2374
    Настройки программы : cabac=1/ref=4/deblock=1: -1: -1/analyse=0x3: 0x133/me=umh/subme=9/psy=1/psy_rd=1.00: 0.15/mixed_ref=1/me_range=24/chroma_me=1/trellis=2/8x8dct=1/cqm=0/deadzone=21, 11/fast_pskip=1/chroma_qp_offset=-3/threads=34/lookahead_threads=5/sliced_threads=0/nr=150/decimate=1/interlaced=0/bluray_compat=0/constrained_intra=0/bframes=8/b_pyramid=2/b_adapt=2/b_bias=0/direct=3/weightb=1/open_gop=0/weightp=2/keyint=120/keyint_min=61/scenecut=0/intra_refresh=0/rc_lookahead=120/rc=crf/mbtree=1/crf=18.0/qcomp=0.60/qpmin=0/qpmax=69/qpstep=4/vbv_maxrate=15000/vbv_bufsize=31250/crf_max=0.0/nal_hrd=vbr/filler=0/ip_ratio=1.40/aq=3: 1.00
    Язык : English
    Default : Да
    Forced : Нет
    Color range : Limited
    Основные цвета : BT.709
    Характеристики трансфера : BT.709
    Коэффициенты матрицы : BT.709
    Аудио #1
    Идентификатор : 2
    Формат : E-AC-3
    Формат/Информация : Enhanced AC-3
    Коммерческое название : Dolby Digital Plus
    Идентификатор кодека : A_EAC3
    Продолжительность : 1 ч. 56 м.
    Вид битрейта : Постоянный
    Битрейт : 640 Кбит/сек
    Каналы : 6 каналов
    Channel layout : L R C LFE Ls Rs
    Частота : 48, 0 КГц
    Частота кадров : 31, 250 кадров/сек (1536 SPF)
    Метод сжатия : С потерями
    Размер потока : 533 Мбайт (5%)
    Язык : English
    Service kind : Complete Main
    Default : Нет
    Forced : Нет
    Аудио #2
    Идентификатор : 5
    Формат : AC-3
    Формат/Информация : Audio Coding 3
    Коммерческое название : Dolby Digital
    Идентификатор кодека : A_AC3
    Продолжительность : 1 ч. 56 м.
    Вид битрейта : Постоянный
    Битрейт : 192 Кбит/сек
    Каналы : 2 канала
    Channel layout : L R
    Частота : 48, 0 КГц
    Частота кадров : 31, 250 кадров/сек (1536 SPF)
    Битовая глубина : 16 бит
    Метод сжатия : С потерями
    Задержка видео : 1 мс.
    Размер потока : 160 Мбайт (2%)
    Заголовок : Перевод: Профессиональный (многоголосый, закадровый) НТВ+
    Язык : Russian
    Service kind : Complete Main
    Default : Да
    Forced : Да
    Аудио #3
    Идентификатор : 6
    Формат : AC-3
    Формат/Информация : Audio Coding 3
    Коммерческое название : Dolby Digital
    Идентификатор кодека : A_AC3
    Продолжительность : 1 ч. 56 м.
    Вид битрейта : Постоянный
    Битрейт : 448 Кбит/сек
    Каналы : 6 каналов
    Channel layout : L R C LFE Ls Rs
    Частота : 48, 0 КГц
    Частота кадров : 31, 250 кадров/сек (1536 SPF)
    Битовая глубина : 16 бит
    Метод сжатия : С потерями
    Задержка видео : 1 мс.
    Размер потока : 373 Мбайт (4%)
    Заголовок : Перевод: Профессиональный (многоголосый, закадровый)
    Язык : Russian
    Service kind : Complete Main
    Default : Нет
    Forced : Нет
    Аудио #4
    Идентификатор : 7
    Формат : AC-3
    Формат/Информация : Audio Coding 3
    Коммерческое название : Dolby Digital
    Идентификатор кодека : A_AC3
    Продолжительность : 1 ч. 56 м.
    Вид битрейта : Постоянный
    Битрейт : 384 Кбит/сек
    Каналы : 6 каналов
    Channel layout : L R C LFE Ls Rs
    Частота : 48, 0 КГц
    Частота кадров : 31, 250 кадров/сек (1536 SPF)
    Битовая глубина : 16 бит
    Метод сжатия : С потерями
    Задержка видео : 1 мс.
    Размер потока : 320 Мбайт (3%)
    Заголовок : Перевод: Профессиональный (двуголосый, закадровый)
    Язык : Russian
    Service kind : Complete Main
    Default : Нет
    Forced : Нет
    Аудио #5
    Идентификатор : 8
    Формат : AC-3
    Формат/Информация : Audio Coding 3
    Коммерческое название : Dolby Digital
    Идентификатор кодека : A_AC3
    Продолжительность : 1 ч. 56 м.
    Вид битрейта : Постоянный
    Битрейт : 384 Кбит/сек
    Каналы : 6 каналов
    Channel layout : L R C LFE Ls Rs
    Частота : 48, 0 КГц
    Частота кадров : 31, 250 кадров/сек (1536 SPF)
    Битовая глубина : 16 бит
    Метод сжатия : С потерями
    Задержка видео : 1 мс.
    Размер потока : 320 Мбайт (3%)
    Заголовок : Перевод: Профессиональный (многоголосый, закадровый)
    Язык : Russian
    Service kind : Complete Main
    Default : Нет
    Forced : Нет
    Аудио #6
    Идентификатор : 9
    Формат : AC-3
    Формат/Информация : Audio Coding 3
    Коммерческое название : Dolby Digital
    Идентификатор кодека : A_AC3
    Продолжительность : 1 ч. 56 м.
    Вид битрейта : Постоянный
    Битрейт : 192 Кбит/сек
    Каналы : 2 канала
    Channel layout : L R
    Частота : 48, 0 КГц
    Частота кадров : 31, 250 кадров/сек (1536 SPF)
    Битовая глубина : 16 бит
    Метод сжатия : С потерями
    Задержка видео : 1 мс.
    Размер потока : 160 Мбайт (2%)
    Заголовок : Перевод: Профессиональный (многоголосый, закадровый) Премьер
    Язык : Russian
    Service kind : Complete Main
    Default : Нет
    Forced : Нет
    Аудио #7
    Идентификатор : 10
    Формат : AC-3
    Формат/Информация : Audio Coding 3
    Коммерческое название : Dolby Digital
    Идентификатор кодека : A_AC3
    Продолжительность : 1 ч. 56 м.
    Вид битрейта : Постоянный
    Битрейт : 448 Кбит/сек
    Каналы : 6 каналов
    Channel layout : L R C LFE Ls Rs
    Частота : 48, 0 КГц
    Частота кадров : 31, 250 кадров/сек (1536 SPF)
    Битовая глубина : 16 бит
    Метод сжатия : С потерями
    Задержка видео : 1 мс.
    Размер потока : 373 Мбайт (4%)
    Заголовок : Перевод: Авторский одноголосый, Ю. Живов
    Язык : Russian
    Service kind : Complete Main
    Default : Нет
    Forced : Нет
    Аудио #8
    Идентификатор : 11
    Формат : AC-3
    Формат/Информация : Audio Coding 3
    Коммерческое название : Dolby Digital
    Идентификатор кодека : A_AC3
    Продолжительность : 1 ч. 56 м.
    Вид битрейта : Постоянный
    Битрейт : 192 Кбит/сек
    Каналы : 2 канала
    Channel layout : L R
    Частота : 48, 0 КГц
    Частота кадров : 31, 250 кадров/сек (1536 SPF)
    Битовая глубина : 16 бит
    Метод сжатия : С потерями
    Задержка видео : 1 мс.
    Размер потока : 160 Мбайт (2%)
    Заголовок : Перевод: Авторский одноголосый, С.Визгунов
    Язык : Russian
    Service kind : Complete Main
    Default : Нет
    Forced : Нет
    Аудио #9
    Идентификатор : 12
    Формат : AC-3
    Формат/Информация : Audio Coding 3
    Коммерческое название : Dolby Digital
    Идентификатор кодека : A_AC3
    Продолжительность : 1 ч. 56 м.
    Вид битрейта : Постоянный
    Битрейт : 192 Кбит/сек
    Каналы : 2 канала
    Channel layout : L R
    Частота : 48, 0 КГц
    Частота кадров : 31, 250 кадров/сек (1536 SPF)
    Битовая глубина : 16 бит
    Метод сжатия : С потерями
    Задержка видео : 1 мс.
    Размер потока : 160 Мбайт (2%)
    Заголовок : Перевод: Авторский одноголосый, А.Дольский
    Язык : Russian
    Service kind : Complete Main
    Default : Нет
    Forced : Нет
    Текст #1
    Идентификатор : 3
    Формат : UTF-8
    Идентификатор кодека : S_TEXT/UTF8
    Идентификатор кодека/Информация : UTF-8 Plain Text
    Продолжительность : 1 ч. 56 м.
    Битрейт : 64 бит/сек
    Count of elements : 2033
    Размер потока : 55, 3 Кбайт (0%)
    Язык : English
    Default : Нет
    Forced : Нет
    Текст #2
    Идентификатор : 4
    Формат : UTF-8
    Идентификатор кодека : S_TEXT/UTF8
    Идентификатор кодека/Информация : UTF-8 Plain Text
    Продолжительность : 1 ч. 56 м.
    Битрейт : 66 бит/сек
    Count of elements : 2090
    Размер потока : 56, 5 Кбайт (0%)
    Заголовок : SDH
    Язык : English
    Default : Нет
    Forced : Нет
    Текст #3
    Идентификатор : 13
    Формат : UTF-8
    Идентификатор кодека : S_TEXT/UTF8
    Идентификатор кодека/Информация : UTF-8 Plain Text
    Продолжительность : 1 ч. 51 м.
    Битрейт : 108 бит/сек
    Count of elements : 1156
    Размер потока : 89, 0 Кбайт (0%)
    Заголовок : full
    Язык : Russian
    Default : Да
    Forced : Нет
    Меню
    00: 00: 00.000 : en: Studio Logo
    00: 00: 18.000 : en: Paul Wakes up, Opening Credits; Paul\'s House
    00: 01: 09.000 : en: Gen. Campbell Gets an Escort; Multiple Locations
    00: 03: 13.000 : en: Gen. Campbell Gives a Speech; Dining Hall
    00: 05: 05.000 : en: Elizabeth Helps Paul with Flat Tire; Road
    00: 08: 26.000 : en: Paul Deals Weapons; Weapons Room
    00: 09: 58.000 : en: Paul Drops Off a Gift; Elizabeth\'s Office
    00: 12: 26.000 : en: Paul Watches the News; Paul\'s House
    00: 13: 36.000 : en: Paul Has an Altercation; Docks
    00: 16: 50.000 : en: Soldiers Find a Body; Van
    00: 18: 10.000 : en: The Chief Questions Paul; Docks
    00: 19: 14.000 : en: Paul Finds Out about Elizabeth; Base
    00: 23: 43.000 : en: Paul and Sara Drive from Scene; Car
    00: 25: 11.000 : en: Sara and Paul Meet with Gen. Campbell; Gen. Campbell\'s Office
    00: 30: 58.000 : en: Paul Questions Robert; Elizabeth\'s Office
    00: 32: 21.000 : en: Paul and Sara Search Elizabeth\'s House; Elizabeth\'s House
    00: 35: 06.000 : en: Paul Finds Elizabeth\'s Secret Room; Basement
    00: 38: 52.000 : en: Sara Investigates a Body; Base
    00: 42: 40.000 : en: Paul Finds Evidence; Rooftop
    00: 43: 27.000 : en: Pvt. Robbin Tells Her Story; Tower
    00: 45: 07.000 : en: Paul Gets a Lecture; Tower
    00: 45: 58.000 : en: Sara and Paul Have a Drink; Army Bar
    00: 48: 55.000 : en: Paul Questions Robert; Robert\'s Office
    00: 54: 11.000 : en: Robert Has a Problem; Hangar
    00: 55: 16.000 : en: Paul Looks for Robert; Robert\'s House
    00: 58: 12.000 : en: Sara Takes Another Look at the Murder Scene; Base
    01: 00: 25.000 : en: Paul Makes an Arrest; Jail
    01: 02: 49.000 : en: Jake Tells His Story; Multiple Locations
    01: 06: 55.000 : en: Paul Gets Upset; Jail
    01: 08: 09.000 : en: Paul and Sara Go Looking for Col. Moore; Multiple Locations
    01: 10: 28.000 : en: Paul Gets Angry; Robert\'s House
    01: 14: 01.000 : en: Sara Persuades Donald to Talk; Donald\'s Office
    01: 16: 31.000 : en: Donald Retells Leslie\'s Attack; Multiple Locations
    01: 20: 29.000 : en: Sara Finds a Suspect to Question; Locker Room
    01: 25: 24.000 : en: Paul Has Questions for Goodson; Multiple Locations
    01: 27: 33.000 : en: Paul Asks Gen. Campbell Hard Questions; Gen. Campbell\'s Office
    01: 30: 44.000 : en: Gen. Campbell Protects His Image; Multiple Locations
    01: 33: 43.000 : en: Paul Mentions a Phone Call; Gen. Campbell\'s Office
    01: 36: 10.000 : en: Gen. Campbell Talks to Elizabeth; Base
    01: 37: 39.000 : en: Paul Has a Realization; Joseph\'s Office
    01: 39: 44.000 : en: Paul and Sara Ask William for a Reason; Base
    01: 41: 48.000 : en: William Explains What Happened; Base
    01: 45: 16.000 : en: Paul Sends a Message; Hangar
    01: 49: 15.000 : en: Elizabeth Leaves the Base; Hangar
    01: 51: 56.000 : en: End Credits

    Скриншоты для ознакомления



    Все одноименные релизы в Клубе
    Время раздачи: с 11: 00 до 21: 00 по Новосибирску (UTC +7) (до появления первых 3-5 скачавших)

    Онлайн видео Генеральская дочь



    Генеральская дочь / The Generals Daughter (1999) WEBRip [H.264 / 1080p] торрент скачать бесплатно
    Рейтинг →
     (голосов: 1, оценка 3/5, голосовать можно 1 раз )

    Другие торренты по теме:

  • Генеральская дочь / The Generals Daughter (1999) WEB-DLRip [H.264 / 720p]


    • Комментарии (0):

      Информация

      Информация

        Посетители, находящиеся в группе Гости, не могут оставлять комментарии в данной новости.

        ↓ Меню




        ↓ Опрос

        Вы добавили сайт в закладки?
        Да
        Нет


        Популярное