.
Авторизация | Регистрация
bitok.xyz
Торрент скачать бесплатно Фильмы торрент скачать Стекло / Glass (2019) UHD BDRip [H.265 / 2160p-LQ] [4K, HDR, 10-bit] торрент скачать бесплатно


    Стекло / Glass (2019) UHD BDRip [H.265 / 2160p-LQ] [4K, HDR, 10-bit] торрент скачать бесплатно

    Дата: 27-01-2020, 05:00 | .torrent скачали: 0

    Стекло / Glass (2019) UHD BDRip [H.265 / 2160p-LQ] [4K, HDR, 10-bit]Производство: США, Китай/Blinding Edge Pictures, Blumhouse Productions, Universal Pictures, Walt Disney Pictures
    Жанр: фантастика, триллер, драма, детектив
    Режиссер: М. Найт Шьямалан

    Актеры
    Джеймс МакЭвой, Брюс Уиллис, Сэмюэл Л. Джексон, Аня Тейлор-Джой, Сара Полсон, Спенсер Трит Кларк, Чарлэйн Вудард, Люк Кирби, Адам Дэвид Томпсон, М. Найт Шьямалан

    Описание

    В поисках встречи с обладающим фантастическими способностями и снова убивающим девушек Зверем Дэвид Данн выходит на след Кевина Крамба. Но решающая схватка не успевает состояться, наших героев ловят и отправляют в психиатрическую больницу. Там уже содержится хрупкий человек Элайджа Прайс, много лет назад устроивший крушение поезда, единственным выжившим в котором оказался Дэвид. Психиатр Элли Стэйпл пытается убедить этих трёх пациентов, что они не обладают сверхспособностями, и всему можно найти рациональное объяснение.

    Возраст: 16+ (зрителям, достигшим 16 лет)
    Рейтинг MPAA: PG-13 (детям до 13 лет просмотр нежелателен)
    Релиз от: SWTYBLZ
    Продолжительность: 02: 09: 06
    Качество видео: UHD BDRip
    Язык озвучки: русский, украинский, английский
    Перевод: Дублированный x2, Многоголосый
    Субтитры: русские (форсированные), английские (полные, для слабослышащих)
    Видео: HEVC/H.265, 3840x1606, ~11, 4 Mbps
    Аудио 1: AC3, 6 ch, 448 Kbps (английский)
    Аудио 2: AC3, 6 ch, 384 Kbps (русский, дубляж - iTunes)
    Аудио 3: AC3, 2 ch, 192 Kbps (русский, многоголосый - HDRezka Studio)
    Аудио 4: AC3, 2 ch, 192 Kbps (украинский, дубляж)
    Общее
    Уникальный идентификатор : 33774648536455905887656852321665710474 (0x1968C2BD167CD0DE5B1BA8CABCE2798A)
    Полное имя : S: all_moviesФильмыИностранныеСтекло (Glass).mkv
    Формат : Matroska
    Версия формата : Version 4
    Размер файла : 11, 4 Гбайт
    Продолжительность : 2 ч. 9 м.
    Общий поток : 12, 7 Мбит/сек
    Название фильма : Стекло/Glass
    Кодирование произвёл : SWTYBLZ
    Дата выпуска : 2019
    Дата кодирования : UTC 2020-01-19 09: 47: 42
    Программа кодирования : mkvmerge v34.0.0 (\'Sight and Seen\') 64-bit
    Библиотека кодирования : libebml v1.3.7 + libmatroska v1.5.0
    Обложка : Yes
    Attachments : small_cover.jpg/small_cover_land.jpg/cover_land.jpg/cover.jpg
    Released by : Buba5473 for NNM-Club
    Видео
    Идентификатор : 1
    Формат : HEVC
    Формат/Информация : High Efficiency Video Coding
    Профиль формата : Main10@L5.1@High
    HDR format : SMPTE ST 2086, HDR10 compatible
    Идентификатор кодека : V_MPEGH/ISO/HEVC
    Продолжительность : 2 ч. 9 м.
    Битрейт : 11, 4 Мбит/сек
    Ширина : 3840 пикселей
    Высота : 1606 пикселей
    Соотношение сторон : 2, 40: 1
    Режим частоты кадров : Постоянный
    Частота кадров : 23, 976 (24000/1001) кадра/сек
    Цветовое пространство : YUV
    Субдискретизация насыщенности : 4: 2: 0 (Type 2)
    Битовая глубина : 10 бит
    Бит/(Пиксели*Кадры) : 0.077
    Размер потока : 10, 3 Гбайт (90%)
    Заголовок : Glass.2019.2160p.BluRay.x265.10bit.HDR.DTS-HD.MA.TrueHD.7.1.Atmos-SWTYBLZ
    Библиотека кодирования : x265 3.0_Au+10-74a8672ea4f7: WindowsGCC 8.2.164 bit 10bit
    Настройки программы : cpuid=1111039/frame-threads=16/numa-pools=24, 24, 24, 24/wpp/no-pmode/no-pme/no-psnr/no-ssim/log-level=2/input-csp=1/input-res=3840x1606/interlace=0/total-frames=0/level-idc=51/high-tier=1/uhd-bd=0/ref=3/no-allow-non-conformance/repeat-t_heads/annexb/aud/hrd/info/hash=0/no-temporal-layers/no-open-gop/min-keyint=1/keyint=24/gop-lookahead=0/bframes=4/b-adapt=2/b-pyramid/bframe-bias=0/rc-lookahead=25/lookahead-slices=4/scenecut=40/radl=0/no-splice/no-intra-refresh/ctu=64/min-cu-size=8/no-rect/no-amp/max-tu-size=32/tu-inter-depth=1/tu-intra-depth=1/limit-tu=0/rdoq-level=0/dynamic-rd=0.00/no-ssim-rd/signhide/no-tskip/nr-intra=0/nr-inter=0/no-constrained-intra/strong-intra-smoothing/max-merge=2/limit-refs=3/no-limit-modes/me=1/subme=2/merange=57/temporal-mvp/weightp/no-weightb/no-analyze-src-pics/deblock=0: 0/no-sao/no-sao-non-deblock/rd=3/no-early-skip/rskip/no-fast-intra/no-tskip-fast/no-cu-lossless/no-b-intra/no-splitrd-skip/rdpenalty=0/psy-rd=2.00/psy-rdoq=0.00/no-rd-refine/no-lossless/cbqpoffs=0/crqpoffs=0/rc=crf/crf=15.0/qcomp=0.60/qpstep=4/stats-write=0/stats-read=0/vbv-maxrate=160000/vbv-bufsize=160000/vbv-init=0.9/crf-max=0.0/crf-min=0.0/ipratio=1.40/pbratio=1.30/aq-mode=1/aq-strength=1.00/cutree/zone-count=0/no-strict-cbr/qg-size=32/no-rc-grain/qpmax=69/qpmin=0/no-const-vbv/sar=1/overscan=0/videoformat=5/range=0/colorprim=9/transfer=16/colormatrix=9/chromaloc=1/chromaloc-top=2/chromaloc-bottom=2/display-window=0/master-display=G(13250, 34500)B(7500, 3000)R(34000, 16000)WP(15635, 16450)L(10000000, 50)/max-cll=457, 182/min-luma=0/max-luma=1023/log2-max-poc-lsb=8/vui-timing-info/vui-hrd-info/slices=1/opt-qp-pps/opt-ref-list-length-pps/no-multi-pass-opt-rps/scenecut-bias=0.05/no-opt-cu-delta-qp/no-aq-motion/hdr/hdr-opt/no-dhdr10-opt/no-idr-recovery-sei/analysis-reuse-level=5/scale-factor=0/refine-intra=0/refine-inter=0/refine-mv=0/refine-ctu-distortion=0/no-limit-sao/ctu-info=0/no-lowpass-dct/refine-analysis-type=0/copy-pic=1/max-ausize-factor=1.0/no-dynamic-refine/no-single-sei/no-hevc-aq/no-svt/qp-adaptation-range=1.00
    Default : Да
    Forced : Нет
    Color range : Limited
    Основные цвета : BT.2020
    Характеристики трансфера : PQ
    Коэффициенты матрицы : BT.2020 non-constant
    Mastering display color primaries : Display P3
    Mastering display luminance : min: 0.0050 cd/m2, max: 1000 cd/m2
    Maximum Content Light Level : 457 cd/m2
    Maximum Frame-Average Light Level : 182 cd/m2
    Аудио #1
    Идентификатор : 2
    Формат : AC-3
    Формат/Информация : Audio Coding 3
    Коммерческое название : Dolby Digital
    Идентификатор кодека : A_AC3
    Продолжительность : 2 ч. 9 м.
    Вид битрейта : Постоянный
    Битрейт : 448 Кбит/сек
    Каналы : 6 каналов
    Channel layout : L R C LFE Ls Rs
    Частота : 48, 0 КГц
    Частота кадров : 31, 250 кадров/сек (1536 SPF)
    Битовая глубина : 16 бит
    Метод сжатия : С потерями
    Размер потока : 413 Мбайт (4%)
    Заголовок : Glass.2019.2160p.BluRay.x265.10bit.HDR.DTS-HD.MA.TrueHD.7.1.Atmos-SWTYBLZ
    Язык : English
    Service kind : Complete Main
    Default : Нет
    Forced : Нет
    Аудио #2
    Идентификатор : 5
    Формат : AC-3
    Формат/Информация : Audio Coding 3
    Коммерческое название : Dolby Digital
    Идентификатор кодека : A_AC3
    Продолжительность : 2 ч. 9 м.
    Вид битрейта : Постоянный
    Битрейт : 384 Кбит/сек
    Каналы : 6 каналов
    Channel layout : L R C LFE Ls Rs
    Частота : 48, 0 КГц
    Частота кадров : 31, 250 кадров/сек (1536 SPF)
    Битовая глубина : 16 бит
    Метод сжатия : С потерями
    Задержка видео : 1 с. 0 мс.
    Размер потока : 355 Мбайт (3%)
    Заголовок : Перевод: Профессиональный дублированный, iTunes
    Язык : Russian
    Service kind : Complete Main
    Default : Да
    Forced : Нет
    Аудио #3
    Идентификатор : 6
    Формат : AC-3
    Формат/Информация : Audio Coding 3
    Коммерческое название : Dolby Digital
    Идентификатор кодека : A_AC3
    Продолжительность : 2 ч. 9 м.
    Вид битрейта : Постоянный
    Битрейт : 192 Кбит/сек
    Каналы : 2 канала
    Channel layout : L R
    Частота : 48, 0 КГц
    Частота кадров : 31, 250 кадров/сек (1536 SPF)
    Битовая глубина : 16 бит
    Метод сжатия : С потерями
    Задержка видео : 1 с. 0 мс.
    Размер потока : 177 Мбайт (2%)
    Заголовок : Перевод: Профессиональный многоголосый, HDRezka Studio
    Язык : Russian
    Service kind : Complete Main
    Default : Нет
    Forced : Нет
    Аудио #4
    Идентификатор : 7
    Формат : AC-3
    Формат/Информация : Audio Coding 3
    Коммерческое название : Dolby Digital
    Идентификатор кодека : A_AC3
    Продолжительность : 2 ч. 9 м.
    Вид битрейта : Постоянный
    Битрейт : 192 Кбит/сек
    Каналы : 2 канала
    Channel layout : L R
    Частота : 48, 0 КГц
    Частота кадров : 31, 250 кадров/сек (1536 SPF)
    Битовая глубина : 16 бит
    Метод сжатия : С потерями
    Задержка видео : 1 с. 0 мс.
    Размер потока : 177 Мбайт (2%)
    Заголовок : Перевод: Профессиональный дублированный
    Язык : Ukrainian
    Service kind : Complete Main
    Default : Нет
    Forced : Нет
    Текст #1
    Идентификатор : 3
    Формат : UTF-8
    Идентификатор кодека : S_TEXT/UTF8
    Идентификатор кодека/Информация : UTF-8 Plain Text
    Продолжительность : 2 ч. 1 м.
    Битрейт : 43 бит/сек
    Count of elements : 1197
    Размер потока : 38, 9 Кбайт (0%)
    Заголовок : English-SRT
    Язык : English
    Default : Нет
    Forced : Нет
    Текст #2
    Идентификатор : 4
    Формат : UTF-8
    Идентификатор кодека : S_TEXT/UTF8
    Идентификатор кодека/Информация : UTF-8 Plain Text
    Продолжительность : 2 ч. 2 м.
    Битрейт : 50 бит/сек
    Count of elements : 1561
    Размер потока : 45, 7 Кбайт (0%)
    Заголовок : English-SDH-SRT
    Язык : English
    Default : Нет
    Forced : Нет
    Текст #3
    Идентификатор : 8
    Формат : UTF-8
    Идентификатор кодека : S_TEXT/UTF8
    Идентификатор кодека/Информация : UTF-8 Plain Text
    Продолжительность : 1 ч. 49 м.
    Битрейт : 1 бит/сек
    Count of elements : 28
    Размер потока : 1, 60 Кбайт (0%)
    Заголовок : Форсированные
    Язык : Russian
    Default : Да
    Forced : Нет
    Меню
    00: 00: 00.000 : en: Chapter 01
    00: 04: 08.457 : en: Chapter 02
    00: 09: 36.367 : en: Chapter 03
    00: 14: 30.078 : en: Chapter 04
    00: 19: 49.897 : en: Chapter 05
    00: 24: 41.063 : en: Chapter 06
    00: 29: 45.826 : en: Chapter 07
    00: 35: 00.598 : en: Chapter 08
    00: 39: 07.595 : en: Chapter 09
    00: 47: 28.220 : en: Chapter 10
    00: 57: 16.224 : en: Chapter 11
    01: 02: 55.271 : en: Chapter 12
    01: 09: 26.829 : en: Chapter 13
    01: 14: 30.299 : en: Chapter 14
    01: 21: 43.774 : en: Chapter 15
    01: 30: 10.530 : en: Chapter 16
    01: 38: 15.515 : en: Chapter 17
    01: 44: 08.742 : en: Chapter 18
    01: 54: 07.215 : en: Chapter 19
    02: 03: 00.290 : en: Chapter 20
    H.265/HEVC (High Efficiency Video Coding) - это новый стандарт кодирования видео.
    *Рипы в фомате HEVC, в настоящее время поддерживается не всеми аппаратными проигрывателями.
    *Для корректного воспроизведения может потребоваться обновление ПО.
    *Стандарт H.265/HEVC является логическим продолжением стандарта H.264/AVC (Advanced Video Coding), и характеризуется более эффективными алгоритмами сжатия, а также поддержкой высокого разрешения вплоть до 8K UHD (8192x4320). Первая версия стандарта H.265 была опубликована в начале 2013 года.
    Любителям решения из коробки - установить последнюю версию на выбор:
    Media Player Classic - Black Edition (MPC-BE)
    VLC media player
    Daum Pot Player
    GOM Media Player
    Любителям WMP и других плееров, использующих по умолчанию для воспроизведения системные кодеки+сплитеры - установить K-Lite Codec Pack версии 10.1.0 и выше.
    Любимые плееры, не использующии по умолчанию для воспроизведения системные кодеки+сплитеры, нужно перенастроить на использование оных.Диск на Blu-ray.com
    Просмотр 4K HDR-контента на ПК

    Скриншоты для ознакомления



    Все одноименные релизы в Клубе
    Время раздачи: с 11: 00 до 21: 00 по Новосибирску (UTC +7) (до появления первых 3-5 скачавших)

    Онлайн видео Стекло



    Стекло / Glass (2019) UHD BDRip [H.265 / 2160p-LQ] [4K, HDR, 10-bit] торрент скачать бесплатно
    Рейтинг →
     (голосов: 1, оценка 4/5, голосовать можно 1 раз )

    Другие торренты по теме:

  • Стекло / Glass (2019) WEB-DL [VP9 / 1152p] [2K, 64 fps, Трейлер]
  • Стекло / Glass (2019) TS [AD]
  • Стекло / Glass (2019) TS [H.264 / 720p-LQ] [AD]
  • Стекло / Glass (2019) WEBRip [H.264 / 2160p] [4K] [UKR, EN / ENG Sub]
  • Стекло / Glass (2019) WEBRip [H.264 / 1080p-LQ] [UKR, EN / ENG Sub]
  • Стекло / Glass (2019) UHD BDRemux [H.265 / 2160p] [4K, HDR, 10-bit] [MVO]
  • Стекло / Glass (2019) BDRip [H.264] [MVO]
  • Стекло / Glass (2019) BDRemux [H.264 / 1080p] [MVO]


    • Комментарии (0):

      Информация

      Информация

        Посетители, находящиеся в группе Гости, не могут оставлять комментарии в данной новости.

        ↓ Меню




        ↓ Опрос

        Вы добавили сайт в закладки?
        Да
        Нет


        Популярное