.
Авторизация | Регистрация
bitok.xyz
Торрент скачать бесплатно Фильмы торрент скачать Сплит / Split (2016) UHD BDRip [H.265 / 2160p-LQ] [4K, HDR, 10-bit] торрент скачать бесплатно


    Сплит / Split (2016) UHD BDRip [H.265 / 2160p-LQ] [4K, HDR, 10-bit] торрент скачать бесплатно

    Дата: 27-01-2020, 05:00 | .torrent скачали: 0

    Сплит / Split (2016) UHD BDRip [H.265 / 2160p-LQ] [4K, HDR, 10-bit]Производство: США, Япония/Blinding Edge Pictures, Blumhouse Productions
    Жанр: ужасы, триллер
    Режиссер: М. Найт Шьямалан

    Актеры
    Джеймс МакЭвой, Аня Тейлор-Джой, Бетти Бакли, Хейли Лу Ричардсон, Джессика Сула, Иззи Коффи, Брэд Уильям Хенке, Себастьян Арселус, Нил Хафф, Уки Вашингтон

    Описание

    Cредь бела дня с многолюдной парковки незнакомец похищает трёх школьниц. Они приходят в себя в закрытом помещении, а в душе владельца таятся 23 лика страха. Сменяя друг друга, личности ведут обычную для них жизнь — работают и ходят к психотерапевту, периодически напоминая пленницам, что они дожидаются 24-ю личность, которая скоро явит себя миру.

    Возраст: 16+ (зрителям, достигшим 16 лет)
    Рейтинг MPAA: PG-13 (детям до 13 лет просмотр нежелателен)
    Релиз от: IAMABLE
    Продолжительность: 01: 57: 08
    Качество видео: UHD BDRip
    Перевод: Дублированный, Многоголосый, Авторский x3
    Субтитры: русские (форсированные, полные), английские (полные, для слабослышащих)
    Видео: HEVC/H.265, 3840x1608, ~14, 6 Mbps
    Аудио 1: DTS, 6 ch, 1509 Kbps (английский)
    Аудио 2: DTS, 6 ch, 768 Kbps (русский, дубляж - Пифагор)
    Аудио 3: AC3, 6 ch, 640 Kbps (русский, многоголосый - ParadoxOmskbird)
    Аудио 4: AC3, 6 ch, 640 Kbps (русский, одноголосый - Ю. Сербин)
    Аудио 5: AC3, 6 ch, 640 Kbps (русский, одноголосый - А. Гаврилов)
    Аудио 6: AC3, 6 ch, 640 Kbps (русский, одноголосый - Д. Есарев)
    Общее
    Уникальный идентификатор : 56923449263537279741269584651988763756 (0x2AD30EBB6DEBF589BEBDE7EA8084046C)
    Полное имя : S: all_moviesФильмыИностранныеСплит (Split).mkv
    Формат : Matroska
    Версия формата : Version 4
    Размер файла : 15, 9 Гбайт
    Продолжительность : 1 ч. 57 м.
    Общий поток : 19, 5 Мбит/сек
    Название фильма : Сплит/Split
    Кодирование произвёл : IAMABLE
    Дата выпуска : 2016
    Дата кодирования : UTC 2020-01-19 06: 54: 25
    Программа кодирования : mkvmerge v34.0.0 (\'Sight and Seen\') 64-bit
    Библиотека кодирования : libebml v1.3.7 + libmatroska v1.5.0
    Обложка : Yes
    Attachments : cover.jpg
    Released by : Buba5473 for NNM-Club
    Видео
    Идентификатор : 1
    Формат : HEVC
    Формат/Информация : High Efficiency Video Coding
    Профиль формата : Main10@L5.1@High
    HDR format : SMPTE ST 2086, HDR10 compatible
    Идентификатор кодека : V_MPEGH/ISO/HEVC
    Продолжительность : 1 ч. 57 м.
    Битрейт : 14, 6 Мбит/сек
    Ширина : 3840 пикселей
    Высота : 1608 пикселей
    Соотношение сторон : 2, 40: 1
    Режим частоты кадров : Постоянный
    Частота кадров : 23, 976 (24000/1001) кадра/сек
    Цветовое пространство : YUV
    Субдискретизация насыщенности : 4: 2: 0 (Type 2)
    Битовая глубина : 10 бит
    Бит/(Пиксели*Кадры) : 0.099
    Размер потока : 12, 0 Гбайт (75%)
    Заголовок : Split.2016.2160p.UHD.BluRay.X265-IAMABLE
    Библиотека кодирования : x265 2.6+4-f7498acb3874: WindowsGCC 7.2.064 bit 10bit
    Настройки программы : cpuid=1173503/frame-threads=5/numa-pools=16, 16/wpp/no-pmode/no-pme/no-psnr/no-ssim/log-level=2/input-csp=1/input-res=3840x1608/interlace=0/total-frames=168506/level-idc=51/high-tier=1/uhd-bd=0/ref=4/no-allow-non-conformance/repeat-t_heads/annexb/aud/hrd/info/hash=0/no-temporal-layers/no-open-gop/min-keyint=24/keyint=240/bframes=4/b-adapt=2/b-pyramid/bframe-bias=0/rc-lookahead=25/lookahead-slices=4/scenecut=40/no-intra-refresh/ctu=64/min-cu-size=8/rect/no-amp/max-tu-size=32/tu-inter-depth=1/tu-intra-depth=1/limit-tu=0/rdoq-level=2/dynamic-rd=0.00/no-ssim-rd/signhide/no-tskip/nr-intra=0/nr-inter=0/no-constrained-intra/no-strong-intra-smoothing/max-merge=3/limit-refs=3/limit-modes/me=3/subme=3/merange=57/temporal-mvp/weightp/no-weightb/no-analyze-src-pics/deblock=-3: -3/no-sao/no-sao-non-deblock/rd=4/no-early-skip/rskip/no-fast-intra/no-tskip-fast/no-cu-lossless/no-b-intra/no-splitrd-skip/rdpenalty=0/psy-rd=2.00/psy-rdoq=1.00/no-rd-refine/analysis-reuse-mode=0/no-lossless/cbqpoffs=0/crqpoffs=0/rc=crf/crf=17.0/qcomp=0.60/qpstep=4/stats-write=0/stats-read=0/vbv-maxrate=160000/vbv-bufsize=160000/vbv-init=0.9/crf-max=0.0/crf-min=0.0/ipratio=1.40/pbratio=1.30/aq-mode=1/aq-strength=1.00/cutree/zone-count=0/no-strict-cbr/qg-size=32/no-rc-grain/qpmax=69/qpmin=0/no-const-vbv/sar=1/overscan=0/videoformat=5/range=0/colorprim=9/transfer=16/colormatrix=9/chromaloc=1/chromaloc-top=2/chromaloc-bottom=2/display-window=0/master-display=G(13250, 34500)B(7500, 3000)R(34000, 16000)WP(15635, 16450)L(10000000, 50)/max-cll=1000, 71/min-luma=0/max-luma=1023/log2-max-poc-lsb=8/vui-timing-info/vui-hrd-info/slices=1/opt-qp-pps/opt-ref-list-length-pps/no-multi-pass-opt-rps/scenecut-bias=0.05/no-opt-cu-delta-qp/no-aq-motion/hdr/hdr-opt/no-dhdr10-opt/analysis-reuse-level=5/scale-factor=0/refine-intra=0/refine-inter=0/refine-mv=0/no-limit-sao/ctu-info=0/no-lowpass-dct/refine-mv-type=0/copy-pic=1
    Default : Да
    Forced : Нет
    Color range : Limited
    Основные цвета : BT.2020
    Характеристики трансфера : PQ
    Коэффициенты матрицы : BT.2020 non-constant
    Mastering display color primaries : Display P3
    Mastering display luminance : min: 0.0050 cd/m2, max: 1000 cd/m2
    Maximum Content Light Level : 1000 cd/m2
    Maximum Frame-Average Light Level : 71 cd/m2
    Аудио #1
    Идентификатор : 2
    Формат : DTS
    Формат/Информация : Digital Theater Systems
    Идентификатор кодека : A_DTS
    Продолжительность : 1 ч. 57 м.
    Вид битрейта : Постоянный
    Битрейт : 1509 Кбит/сек
    Каналы : 6 каналов
    Channel layout : C L R Ls Rs LFE
    Частота : 48, 0 КГц
    Частота кадров : 93, 750 кадра/сек (512 SPF)
    Битовая глубина : 24 бит
    Метод сжатия : С потерями
    Размер потока : 1, 23 Гбайт (8%)
    Язык : English
    Default : Нет
    Forced : Нет
    Аудио #2
    Идентификатор : 5
    Формат : DTS
    Формат/Информация : Digital Theater Systems
    Идентификатор кодека : A_DTS
    Продолжительность : 1 ч. 57 м.
    Вид битрейта : Постоянный
    Битрейт : 768 Кбит/сек
    Каналы : 6 каналов
    Channel layout : C L R Ls Rs LFE
    Частота : 48, 0 КГц
    Частота кадров : 93, 750 кадра/сек (512 SPF)
    Битовая глубина : 24 бит
    Метод сжатия : С потерями
    Задержка видео : 45 мс.
    Размер потока : 643 Мбайт (4%)
    Заголовок : Перевод: Профессиональный (дублированный)
    Язык : Russian
    Default : Да
    Forced : Нет
    Аудио #3
    Идентификатор : 6
    Формат : AC-3
    Формат/Информация : Audio Coding 3
    Коммерческое название : Dolby Digital
    Идентификатор кодека : A_AC3
    Продолжительность : 1 ч. 57 м.
    Вид битрейта : Постоянный
    Битрейт : 640 Кбит/сек
    Каналы : 6 каналов
    Channel layout : L R C LFE Ls Rs
    Частота : 48, 0 КГц
    Частота кадров : 31, 250 кадров/сек (1536 SPF)
    Битовая глубина : 16 бит
    Метод сжатия : С потерями
    Задержка видео : 45 мс.
    Размер потока : 536 Мбайт (3%)
    Заголовок : Перевод: Любительский (многоголосый закадровый) ParadoxOmskbird
    Язык : Russian
    Service kind : Complete Main
    Default : Нет
    Forced : Нет
    Аудио #4
    Идентификатор : 11
    Формат : AC-3
    Формат/Информация : Audio Coding 3
    Коммерческое название : Dolby Digital
    Идентификатор кодека : A_AC3
    Продолжительность : 1 ч. 57 м.
    Вид битрейта : Постоянный
    Битрейт : 640 Кбит/сек
    Каналы : 6 каналов
    Channel layout : L R C LFE Ls Rs
    Частота : 48, 0 КГц
    Частота кадров : 31, 250 кадров/сек (1536 SPF)
    Битовая глубина : 16 бит
    Метод сжатия : С потерями
    Размер потока : 536 Мбайт (3%)
    Заголовок : Перевод: Авторский (одноголосый закадровый) Юрий Сербин
    Язык : Russian
    Service kind : Complete Main
    Default : Нет
    Forced : Нет
    Аудио #5
    Идентификатор : 12
    Формат : AC-3
    Формат/Информация : Audio Coding 3
    Коммерческое название : Dolby Digital
    Идентификатор кодека : A_AC3
    Продолжительность : 1 ч. 57 м.
    Вид битрейта : Постоянный
    Битрейт : 640 Кбит/сек
    Каналы : 6 каналов
    Channel layout : L R C LFE Ls Rs
    Частота : 48, 0 КГц
    Частота кадров : 31, 250 кадров/сек (1536 SPF)
    Битовая глубина : 16 бит
    Метод сжатия : С потерями
    Размер потока : 536 Мбайт (3%)
    Заголовок : Перевод: Авторский (одноголосый закадровый) Андрей Гаврилов
    Язык : Russian
    Service kind : Complete Main
    Default : Нет
    Forced : Нет
    Аудио #6
    Идентификатор : 13
    Формат : AC-3
    Формат/Информация : Audio Coding 3
    Коммерческое название : Dolby Digital
    Идентификатор кодека : A_AC3
    Продолжительность : 1 ч. 57 м.
    Вид битрейта : Постоянный
    Битрейт : 640 Кбит/сек
    Каналы : 6 каналов
    Channel layout : L R C LFE Ls Rs
    Частота : 48, 0 КГц
    Частота кадров : 31, 250 кадров/сек (1536 SPF)
    Битовая глубина : 16 бит
    Метод сжатия : С потерями
    Размер потока : 536 Мбайт (3%)
    Заголовок : Перевод: Одноголосый закадровый Дмитрий Есарев
    Язык : Russian
    Service kind : Complete Main
    Default : Нет
    Forced : Нет
    Текст #1
    Идентификатор : 3
    Формат : UTF-8
    Идентификатор кодека : S_TEXT/UTF8
    Идентификатор кодека/Информация : UTF-8 Plain Text
    Продолжительность : 1 ч. 51 м.
    Битрейт : 45 бит/сек
    Count of elements : 1273
    Размер потока : 36, 8 Кбайт (0%)
    Заголовок : Stripped SRT (not positioned)
    Язык : English
    Default : Нет
    Forced : Нет
    Текст #2
    Идентификатор : 4
    Формат : UTF-8
    Идентификатор кодека : S_TEXT/UTF8
    Идентификатор кодека/Информация : UTF-8 Plain Text
    Продолжительность : 1 ч. 51 м.
    Битрейт : 49 бит/сек
    Count of elements : 1441
    Размер потока : 40, 4 Кбайт (0%)
    Заголовок : SDH SRT (not positioned)
    Язык : English
    Default : Нет
    Forced : Нет
    Текст #3
    Идентификатор : 7
    Формат : UTF-8
    Идентификатор кодека : S_TEXT/UTF8
    Идентификатор кодека/Информация : UTF-8 Plain Text
    Продолжительность : 1 ч. 47 м.
    Битрейт : 0 бит/сек
    Count of elements : 17
    Размер потока : 552 байт (0%)
    Заголовок : Форсированные
    Язык : Russian
    Default : Да
    Forced : Нет
    Текст #4
    Идентификатор : 8
    Формат : UTF-8
    Идентификатор кодека : S_TEXT/UTF8
    Идентификатор кодека/Информация : UTF-8 Plain Text
    Продолжительность : 1 ч. 51 м.
    Битрейт : 72 бит/сек
    Count of elements : 1235
    Размер потока : 59, 3 Кбайт (0%)
    Заголовок : BD
    Язык : Russian
    Default : Нет
    Forced : Нет
    Текст #5
    Идентификатор : 9
    Формат : UTF-8
    Идентификатор кодека : S_TEXT/UTF8
    Идентификатор кодека/Информация : UTF-8 Plain Text
    Продолжительность : 1 ч. 51 м.
    Битрейт : 76 бит/сек
    Count of elements : 1235
    Размер потока : 62, 0 Кбайт (0%)
    Заголовок : Оля Ромикова и Леся Шевченко
    Язык : Russian
    Default : Нет
    Forced : Нет
    Текст #6
    Идентификатор : 10
    Формат : UTF-8
    Идентификатор кодека : S_TEXT/UTF8
    Идентификатор кодека/Информация : UTF-8 Plain Text
    Продолжительность : 1 ч. 51 м.
    Битрейт : 78 бит/сек
    Count of elements : 1257
    Размер потока : 63, 8 Кбайт (0%)
    Заголовок : piccadilly
    Язык : Russian
    Default : Нет
    Forced : Нет
    Меню
    00: 00: 00.000 : en: 00: 00: 00.000
    00: 06: 08.451 : en: 00: 06: 08.451
    00: 14: 19.025 : en: 00: 14: 19.025
    00: 20: 49.373 : en: 00: 20: 49.373
    00: 24: 14.536 : en: 00: 24: 14.536
    00: 28: 37.049 : en: 00: 28: 37.049
    00: 35: 47.979 : en: 00: 35: 47.979
    00: 42: 35.386 : en: 00: 42: 35.386
    00: 49: 06.068 : en: 00: 49: 06.068
    00: 54: 09.413 : en: 00: 54: 09.413
    01: 00: 24.496 : en: 01: 00: 24.496
    01: 06: 22.562 : en: 01: 06: 22.562
    01: 12: 31.222 : en: 01: 12: 31.222
    01: 19: 35.771 : en: 01: 19: 35.771
    01: 25: 25.829 : en: 01: 25: 25.829
    01: 29: 16.560 : en: 01: 29: 16.560
    01: 34: 08.226 : en: 01: 34: 08.226
    01: 40: 45.998 : en: 01: 40: 45.998
    01: 47: 40.287 : en: 01: 47: 40.287
    01: 52: 26.740 : en: 01: 52: 26.740
    H.265/HEVC (High Efficiency Video Coding) - это новый стандарт кодирования видео.
    *Рипы в фомате HEVC, в настоящее время поддерживается не всеми аппаратными проигрывателями.
    *Для корректного воспроизведения может потребоваться обновление ПО.
    *Стандарт H.265/HEVC является логическим продолжением стандарта H.264/AVC (Advanced Video Coding), и характеризуется более эффективными алгоритмами сжатия, а также поддержкой высокого разрешения вплоть до 8K UHD (8192x4320). Первая версия стандарта H.265 была опубликована в начале 2013 года.
    Любителям решения из коробки - установить последнюю версию на выбор:
    Media Player Classic - Black Edition (MPC-BE)
    VLC media player
    Daum Pot Player
    GOM Media Player
    Любителям WMP и других плееров, использующих по умолчанию для воспроизведения системные кодеки+сплитеры - установить K-Lite Codec Pack версии 10.1.0 и выше.
    Любимые плееры, не использующии по умолчанию для воспроизведения системные кодеки+сплитеры, нужно перенастроить на использование оных.Диск на Blu-ray.com
    Просмотр 4K HDR-контента на ПК

    Скриншоты для ознакомления



    Все одноименные релизы в Клубе
    Время раздачи: с 11: 00 до 21: 00 по Новосибирску (UTC +7) (до появления первых 3-5 скачавших)

    Онлайн видео Сплит



    Сплит / Split (2016) UHD BDRip [H.265 / 2160p-LQ] [4K, HDR, 10-bit] торрент скачать бесплатно
    Рейтинг →
     (голосов: 1, оценка 3/5, голосовать можно 1 раз )

    Другие торренты по теме:

  • Сплит / Split (2016) TS
  • Сплит / Split (2016) WEB-DLRip
  • Сплит / Split (2016) TS
  • Сплит / Split (2016) WEBRip [Звук с TS]
  • Сплит / Split (2016) WEBRip [H.264 / 720p-LQ] [Звук с TS]
  • Сплит / Split (2016) WEBRip [H.264 / 1080p-LQ] [Звук с TS]
  • Сплит / Split (2016) WEBRip [H.264 / 1080p-LQ] [EN / KOR Sub]
  • Сплит / Split (2016) WEBRip [H.264 / 1080p-LQ]


    • Комментарии (0):

      Информация

      Информация

        Посетители, находящиеся в группе Гости, не могут оставлять комментарии в данной новости.

        ↓ Меню




        ↓ Опрос

        Вы добавили сайт в закладки?
        Да
        Нет


        Популярное