.
Авторизация | Регистрация
bitok.xyz
Торрент скачать бесплатно Фильмы торрент скачать Каприз / Caprice (1967) BDRemux [H.264 / 1080p] торрент скачать бесплатно


    Каприз / Caprice (1967) BDRemux [H.264 / 1080p] торрент скачать бесплатно

    Дата: 27-01-2020, 05:00 | .torrent скачали: 0

    Каприз / Caprice (1967) BDRemux [H.264 / 1080p]Производство: США, Twentieth Century Fox, Melcher-Arcola Productions
    Жанр: Триллер, комедия, криминал
    Режиссер: Фрэнк Тэшлин

    Актеры
    Дорис Дэй, Ричард Харрис, Рэй Уолстон, Джек Крушен, Эдвард Малхейр, Лилия Скала, Ирэн Тсу, Ларри Д. Манн, Морис Марсак, Майкл Романофф

    Описание

    В основе сюжета шпиономания, сфера деятельности — производство косметики. Главные герои Патрисия Фостер и Кристофер Уайт только и делают, что пытаются провести друг друга.
    Ведущий дизайнер английской косметической компании Патриция Фостер (Дорис Дэй) решает продать конкурентам секретную формулу одного из средств по уходу своей фирмы. Это становится известно ее работодателю Джейсону Фоксу, и девушку немедленно увольняют. Вскоре после этого американский агент Кристофер Уайт (Ричард Харрис), шпион в сфере производства косметики, делает Патриции заманчивое предложение – за хорошее вознаграждение предоставить ему секретную информацию компании Фокса. Фостер соглашается, не предполагая, чем грозит ей это решение…

    Продолжительность: 01: 37: 36
    Качество видео: BDRemux
    Перевод: Многоголосый профессиональный (1 Канал)
    Субтитры: Русские, английские
    Видео: AVC/H.264, 1920x1080, ~21.0 Mbps
    Аудио #1: AC3, 2 ch, 192 kbps - Русский (MVO 1 Канал)
    Аудио #2: PCM, 2 ch, 1536 kbps - Английский
    General
    Unique ID : 180433423679298619007870442830741710362 (0x87BE369EF8F2333E380B3AE1EE41261A)
    Complete name : F: Новая папка (17)Caprice.1967.BDREMUX 1080p.mkv
    Format : Matroska
    Format version : Version 4
    File size : 15.5 GiB
    Duration : 1 h 37 min
    Overall bit rate mode : Variable
    Overall bit rate : 22.7 Mb/s
    Movie name : Caprice.1967.BDREMUX 1080p
    Encoded date : UTC 2020-01-19 15: 27: 16
    Writing application : mkvmerge v29.0.0 (\'Like It Or Not\') 64-bit
    Writing library : libebml v1.3.6 + libmatroska v1.4.9
    Cover : Yes
    Attachments : small_cover.jpg/small_cover_land.jpg/cover.jpg/cover_land.jpg
    Video
    ID : 1
    Format : AVC
    Format/Info : Advanced Video Codec
    Format profile : High@L4.1
    Format settings : CABAC/4 Ref Frames
    Format settings, CABAC : Yes
    Format settings, RefFrames : 4 frames
    Codec ID : V_MPEG4/ISO/AVC
    Duration : 1 h 37 min
    Bit rate mode : Variable
    Bit rate : 21.0 Mb/s
    Maximum bit rate : 35.0 Mb/s
    Width : 1 920 pixels
    Height : 1 080 pixels
    Display aspect ratio : 16: 9
    Frame rate mode : Constant
    Frame rate : 23.976 (24000/1001) FPS
    Standard : NTSC
    Color space : YUV
    Chroma subsampling : 4: 2: 0
    Bit depth : 8 bits
    Scan type : Progressive
    Bits/(Pixel*Frame) : 0.422
    Stream size : 14.3 GiB (92%)
    Title : Caprice.1967.BDREMUX 1080p
    Language : English
    Default : No
    Forced : No
    Color range : Limited
    Color primaries : BT.709
    Transfer characteristics : BT.709
    Matrix coefficients : BT.709
    Audio #1
    ID : 2
    Format : AC-3
    Format/Info : Audio Coding 3
    Commercial name : Dolby Digital
    Codec ID : A_AC3
    Duration : 1 h 37 min
    Bit rate mode : Constant
    Bit rate : 192 kb/s
    Channel(s) : 2 channels
    Channel layout : L R
    Sampling rate : 48.0 kHz
    Frame rate : 31.250 FPS (1536 SPF)
    Bit depth : 16 bits
    Compression mode : Lossy
    Stream size : 134 MiB (1%)
    Title : MVO (1 канал)
    Language : Russian
    Service kind : Complete Main
    Default : Yes
    Forced : No
    Audio #2
    ID : 3
    Format : PCM
    Format settings : Little/Signed
    Codec ID : A_PCM/INT/LIT
    Duration : 1 h 37 min
    Bit rate mode : Constant
    Bit rate : 1 536 kb/s
    Channel(s) : 2 channels
    Sampling rate : 48.0 kHz
    Frame rate : 30.000 FPS (1600 SPF)
    Bit depth : 16 bits
    Stream size : 1.05 GiB (7%)
    Title : Original
    Language : English
    Default : No
    Forced : No
    Text #1
    ID : 4
    Format : UTF-8
    Codec ID : S_TEXT/UTF8
    Codec ID/Info : UTF-8 Plain Text
    Duration : 1 h 34 min
    Bit rate : 117 b/s
    Count of elements : 1123
    Stream size : 81.4 KiB (0%)
    Language : Russian
    Default : No
    Forced : No
    Text #2
    ID : 5
    Format : UTF-8
    Codec ID : S_TEXT/UTF8
    Codec ID/Info : UTF-8 Plain Text
    Duration : 1 h 36 min
    Bit rate : 65 b/s
    Count of elements : 1247
    Stream size : 46.2 KiB (0%)
    Language : English
    Default : No
    Forced : No
    Menu
    00: 00: 00.000 : en: Chapter 01
    00: 07: 27.405 : en: Chapter 02
    00: 12: 51.854 : en: Chapter 03
    00: 18: 42.412 : en: Chapter 04
    00: 27: 10.211 : en: Chapter 05
    00: 40: 56.620 : en: Chapter 06
    00: 48: 51.511 : en: Chapter 07
    00: 58: 54.697 : en: Chapter 08
    01: 13: 19.770 : en: Chapter 09
    01: 19: 33.935 : en: Chapter 10
    01: 27: 53.768 : en: Chapter 11
    01: 35: 53.706 : en: Chapter 12

    Скриншоты для ознакомления



    Все одноименные релизы в Клубе
    Время раздачи: до появления первых 3-5 скачавших (до появления первых 3-5 скачавших)

    Онлайн видео Каприз



    Каприз / Caprice (1967) BDRemux [H.264 / 1080p] торрент скачать бесплатно
    Рейтинг →
     (голосов: 1, оценка 4/5, голосовать можно 1 раз )

    Другие торренты по теме:

  • Каприз / Caprice (1967) DVDRip [H.264]
  • Каприз / Caprice (2015) HDTV [H.264 / 1080i]
  • Каприз / Caprice (2015) WEB-DLRip
  • Каприз / Caprice (1967) BDRip [H.264]


    • Комментарии (0):

      Информация

      Информация

        Посетители, находящиеся в группе Гости, не могут оставлять комментарии в данной новости.

        ↓ Меню




        ↓ Опрос

        Вы добавили сайт в закладки?
        Да
        Нет


        Популярное