.
Авторизация | Регистрация
bitok.xyz
Торрент скачать бесплатно Фильмы торрент скачать Один дома 2: Затерянный в Нью-Йорке / Home alone 2: Lost in New York (1992) BDRip [H.264 / 720p] торрент скачать бесплатно


    Один дома 2: Затерянный в Нью-Йорке / Home alone 2: Lost in New York (1992) BDRip [H.264 / 720p] торрент скачать бесплатно

    Дата: 27-01-2020, 05:00 | .torrent скачали: 1

    Один дома 2: Затерянный в Нью-Йорке / Home alone 2: Lost in New York (1992) BDRip [H.264 / 720p]Производство: США/Twentieth Century Fox Film Corporation
    Жанр: Комедия, семейный, приключения
    Режиссер: Крис Коламбус
    Продюсер: Джон Хьюз, Дункан Хендерсон, Марк Рэдклифф

    Актеры
    Маколей Калкин, Джо Пеши, Дэниел Стерн, Тим Карри, Кэтрин О’Хара, Джон Хёрд, Бренда Фрикер, Эдди Брекен, Роб Шнайдер, Дэна Айви

    Описание

    Самый маленький герой Америки устраивает большой переполох в Нью-Йорке! Кевин МакКалистер вернулся! Но теперь он один не дома, а в Нью-Йорке и у него достаточно денег и кредитных карточек, чтобы превратить Большое Яблоко в собственную площадку для игр.
    Но, как всегда, Кевину не суждено быть долго одному: его старые приятели ― жулики Гарри и Марв ― сбежали из тюрьмы, куда они попали стараниями Кевина. И надо же им было попасть именно в тот город, где Кевин планировал поразвлечься! Новые западни и ловушки уже ждут горе-бандитов.

    Возраст: 12+ (зрителям, достигшим 12 лет)
    Рейтинг MPAA: PG (рекомендуется присутствие родителей)
    Релиз от: NNMClub
    Продолжительность: 02: 00: 01
    Качество видео: BDRip 720p (Heisenberg )
    Перевод: Дублированный, профессиональный (многоголосый, двухголосый закадровый), авторский (одноголосый)
    Субтитры: Русские, английские
    Видео: AVC/H.264, 1280x692, (1.85: 1), 13 Mbps, 23.976 fps
    Аудио 01: AC3, 6 ch, 448 Kbps - Русский (DUB, BD CEE)
    Аудио 02: AC3, 6 ch, 384 kbps - Русский (MVO, R5)
    Аудио 03: AC3, 2 ch, 192 kbps - Русский (MVO, OPT)
    Аудио 04: AC3, 2 ch, 192 kbps - Русский (DVO, НТВ)
    Аудио 05: AC3, 2 ch, 192 Kbps - Русский (DVO, Премьер Видео Фильм)
    Аудио 06: AC3, 2 ch, 192 Kbps - Русский (DVO, SDI Media)
    Аудио 07: AC3, 6 ch, 448 Kbps - Русский (AVO, А. Михалев)
    Аудио 08: AC3, 6 ch, 448 Kbps - Русский (AVO, А. Карповский)
    Аудио 09: AC3, 6 ch, 448 Kbps - Русский (AVO, В. Горчаков)
    Аудио 10: AC3, 2 ch, 192 Kbps - Русский (AVO, В. Дохалов)
    Аудио 11: AC3, 2 ch, 192 Kbps - Русский (AVO, А. Марченко)
    Аудио 12: AC3, 2 ch, 192 Kbps - Русский (AVO, П. Прямостанов)
    Аудио 13: AC3, 2 ch, 448 Kbps - Украинский (MVO, Новый Канал)
    Аудио 14: AC3, 2 ch, 192 Kbps - Украинский (DVO, 1+1)
    Аудио 15: AC3, 6 ch, 448 Kbps - Английский (оригинал)General
    Unique ID : 81025349960752458417021551700457364685 (0x3CF4EA2EA77AA7CA26B97E9E6E351CCD)
    Complete name : F: Home.Alone.2.Lost.in.New.York.1992.BDRip.720p.NNMClub.mkv
    Format : Matroska
    Format version : Version 4
    File size : 14.8 GiB
    Duration : 2 h 0 min
    Overall bit rate : 17.6 Mb/s
    Movie name : Home Alone 2: Lost in New York (1992) | NNMClub
    Encoded date : UTC 2020-01-20 13: 08: 41
    Writing application : mkvmerge v42.0.0 (\'Overtime\') 64-bit
    Writing library : libebml v1.3.10 + libmatroska v1.5.2
    Cover : Yes
    Attachments : Cover.jpg/x264.log
    Video
    ID : 1
    Format : AVC
    Format/Info : Advanced Video Codec
    Format profile : High@L4.1
    Format settings : CABAC/9 Ref Frames
    Format settings, CABAC : Yes
    Format settings, Reference : 9 frames
    Codec ID : V_MPEG4/ISO/AVC
    Duration : 2 h 0 min
    Bit rate : 13.0 Mb/s
    Width : 1 280 pixels
    Height : 692 pixels
    Display aspect ratio : 1.85: 1
    Frame rate mode : Constant
    Frame rate : 23.976 (24000/1001) FPS
    Color space : YUV
    Chroma subsampling : 4: 2: 0
    Bit depth : 8 bits
    Scan type : Progressive
    Bits/(Pixel*Frame) : 0.612
    Stream size : 10.9 GiB (74%)
    Title : Home Alone 2: Lost in New York (1992)
    Writing library : x264 core 159 r2991 1771b55
    Encoding settings : cabac=1/ref=9/deblock=1: -3: -3/analyse=0x3: 0x133/me=umh/subme=11/psy=1/psy_rd=1.00: 0.00/mixed_ref=1/me_range=64/chroma_me=1/trellis=2/8x8dct=1/cqm=0/deadzone=21, 11/fast_pskip=0/chroma_qp_offset=-2/threads=12/lookahead_threads=3/sliced_threads=0/nr=0/decimate=0/interlaced=0/bluray_compat=0/constrained_intra=0/bframes=16/b_pyramid=2/b_adapt=2/b_bias=0/direct=3/weightb=1/open_gop=0/weightp=2/keyint=240/keyint_min=23/scenecut=40/intra_refresh=0/rc_lookahead=60/rc=2pass/mbtree=0/bitrate=13000/ratetol=1.0/qcomp=0.60/qpmin=0/qpmax=69/qpstep=4/cplxblur=20.0/qblur=0.5/vbv_maxrate=50000/vbv_bufsize=62500/nal_hrd=none/filler=0/ip_ratio=1.40/pb_ratio=1.30/aq=1: 1.00
    Language : English
    Default : Yes
    Forced : No
    Audio #1
    ID : 2
    Format : AC-3
    Format/Info : Audio Coding 3
    Commercial name : Dolby Digital
    Codec ID : A_AC3
    Duration : 2 h 0 min
    Bit rate mode : Constant
    Bit rate : 448 kb/s
    Channel(s) : 6 channels
    Channel layout : L R C LFE Ls Rs
    Sampling rate : 48.0 kHz
    Frame rate : 31.250 FPS (1536 SPF)
    Compression mode : Lossy
    Stream size : 385 MiB (3%)
    Title : DUB | BD CEE
    Language : Russian
    Service kind : Complete Main
    Default : Yes
    Forced : No
    Audio #2
    ID : 3
    Format : AC-3
    Format/Info : Audio Coding 3
    Commercial name : Dolby Digital
    Codec ID : A_AC3
    Duration : 2 h 0 min
    Bit rate mode : Constant
    Bit rate : 384 kb/s
    Channel(s) : 6 channels
    Channel layout : L R C LFE Ls Rs
    Sampling rate : 48.0 kHz
    Frame rate : 31.250 FPS (1536 SPF)
    Compression mode : Lossy
    Stream size : 330 MiB (2%)
    Title : MVO | R5
    Language : Russian
    Service kind : Complete Main
    Default : No
    Forced : No
    Audio #3
    ID : 4
    Format : AC-3
    Format/Info : Audio Coding 3
    Commercial name : Dolby Digital
    Codec ID : A_AC3
    Duration : 2 h 0 min
    Bit rate mode : Constant
    Bit rate : 192 kb/s
    Channel(s) : 2 channels
    Channel layout : L R
    Sampling rate : 48.0 kHz
    Frame rate : 31.250 FPS (1536 SPF)
    Compression mode : Lossy
    Stream size : 165 MiB (1%)
    Title : MVO | ОРТ
    Language : Russian
    Service kind : Complete Main
    Default : No
    Forced : No
    Audio #4
    ID : 5
    Format : AC-3
    Format/Info : Audio Coding 3
    Commercial name : Dolby Digital
    Codec ID : A_AC3
    Duration : 2 h 0 min
    Bit rate mode : Constant
    Bit rate : 192 kb/s
    Channel(s) : 2 channels
    Channel layout : L R
    Sampling rate : 48.0 kHz
    Frame rate : 31.250 FPS (1536 SPF)
    Compression mode : Lossy
    Stream size : 165 MiB (1%)
    Title : DVO | НТВ
    Language : Russian
    Service kind : Complete Main
    Default : No
    Forced : No
    Audio #5
    ID : 6
    Format : AC-3
    Format/Info : Audio Coding 3
    Commercial name : Dolby Digital
    Codec ID : A_AC3
    Duration : 2 h 0 min
    Bit rate mode : Constant
    Bit rate : 192 kb/s
    Channel(s) : 2 channels
    Channel layout : L R
    Sampling rate : 48.0 kHz
    Frame rate : 31.250 FPS (1536 SPF)
    Compression mode : Lossy
    Stream size : 165 MiB (1%)
    Title : DVO | Премьер Видео Фильм
    Language : Russian
    Service kind : Complete Main
    Default : No
    Forced : No
    Audio #6
    ID : 7
    Format : AC-3
    Format/Info : Audio Coding 3
    Commercial name : Dolby Digital
    Codec ID : A_AC3
    Duration : 2 h 0 min
    Bit rate mode : Constant
    Bit rate : 192 kb/s
    Channel(s) : 2 channels
    Channel layout : L R
    Sampling rate : 48.0 kHz
    Frame rate : 31.250 FPS (1536 SPF)
    Compression mode : Lossy
    Stream size : 165 MiB (1%)
    Title : DVO | SDI Media
    Language : Russian
    Service kind : Complete Main
    Default : No
    Forced : No
    Audio #7
    ID : 8
    Format : AC-3
    Format/Info : Audio Coding 3
    Commercial name : Dolby Digital
    Codec ID : A_AC3
    Duration : 2 h 0 min
    Bit rate mode : Constant
    Bit rate : 448 kb/s
    Channel(s) : 6 channels
    Channel layout : L R C LFE Ls Rs
    Sampling rate : 48.0 kHz
    Frame rate : 31.250 FPS (1536 SPF)
    Compression mode : Lossy
    Stream size : 385 MiB (3%)
    Title : AVO | А. Михалёв
    Language : Russian
    Service kind : Complete Main
    Default : No
    Forced : No
    Audio #8
    ID : 9
    Format : AC-3
    Format/Info : Audio Coding 3
    Commercial name : Dolby Digital
    Codec ID : A_AC3
    Duration : 2 h 0 min
    Bit rate mode : Constant
    Bit rate : 448 kb/s
    Channel(s) : 6 channels
    Channel layout : L R C LFE Ls Rs
    Sampling rate : 48.0 kHz
    Frame rate : 31.250 FPS (1536 SPF)
    Compression mode : Lossy
    Stream size : 385 MiB (3%)
    Title : AVO | А. Карповский
    Language : Russian
    Service kind : Complete Main
    Default : No
    Forced : No
    Audio #9
    ID : 10
    Format : AC-3
    Format/Info : Audio Coding 3
    Commercial name : Dolby Digital
    Codec ID : A_AC3
    Duration : 2 h 0 min
    Bit rate mode : Constant
    Bit rate : 448 kb/s
    Channel(s) : 6 channels
    Channel layout : L R C LFE Ls Rs
    Sampling rate : 48.0 kHz
    Frame rate : 31.250 FPS (1536 SPF)
    Compression mode : Lossy
    Stream size : 385 MiB (3%)
    Title : AVO | В. Горчаков
    Language : Russian
    Service kind : Complete Main
    Default : No
    Forced : No
    Audio #10
    ID : 11
    Format : AC-3
    Format/Info : Audio Coding 3
    Commercial name : Dolby Digital
    Codec ID : A_AC3
    Duration : 2 h 0 min
    Bit rate mode : Constant
    Bit rate : 192 kb/s
    Channel(s) : 2 channels
    Channel layout : L R
    Sampling rate : 48.0 kHz
    Frame rate : 31.250 FPS (1536 SPF)
    Compression mode : Lossy
    Stream size : 165 MiB (1%)
    Title : AVO | В. Дохалов
    Language : Russian
    Service kind : Complete Main
    Default : No
    Forced : No
    Audio #11
    ID : 12
    Format : AC-3
    Format/Info : Audio Coding 3
    Commercial name : Dolby Digital
    Codec ID : A_AC3
    Duration : 2 h 0 min
    Bit rate mode : Constant
    Bit rate : 192 kb/s
    Channel(s) : 2 channels
    Channel layout : L R
    Sampling rate : 48.0 kHz
    Frame rate : 31.250 FPS (1536 SPF)
    Compression mode : Lossy
    Stream size : 165 MiB (1%)
    Title : AVO | А. Марченко
    Language : Russian
    Service kind : Complete Main
    Default : No
    Forced : No
    Audio #12
    ID : 13
    Format : AC-3
    Format/Info : Audio Coding 3
    Commercial name : Dolby Digital
    Codec ID : A_AC3
    Duration : 2 h 0 min
    Bit rate mode : Constant
    Bit rate : 192 kb/s
    Channel(s) : 2 channels
    Channel layout : L R
    Sampling rate : 48.0 kHz
    Frame rate : 31.250 FPS (1536 SPF)
    Compression mode : Lossy
    Stream size : 165 MiB (1%)
    Title : AVO | П. Прямостанов
    Language : Russian
    Service kind : Complete Main
    Default : No
    Forced : No
    Audio #13
    ID : 14
    Format : AC-3
    Format/Info : Audio Coding 3
    Commercial name : Dolby Digital
    Codec ID : A_AC3
    Duration : 2 h 0 min
    Bit rate mode : Constant
    Bit rate : 448 kb/s
    Channel(s) : 6 channels
    Channel layout : L R C LFE Ls Rs
    Sampling rate : 48.0 kHz
    Frame rate : 31.250 FPS (1536 SPF)
    Compression mode : Lossy
    Stream size : 385 MiB (3%)
    Title : MVO | Новый канал
    Language : Ukrainian
    Service kind : Complete Main
    Default : No
    Forced : No
    Audio #14
    ID : 15
    Format : AC-3
    Format/Info : Audio Coding 3
    Commercial name : Dolby Digital
    Codec ID : A_AC3
    Duration : 2 h 0 min
    Bit rate mode : Constant
    Bit rate : 192 kb/s
    Channel(s) : 2 channels
    Channel layout : L R
    Sampling rate : 48.0 kHz
    Frame rate : 31.250 FPS (1536 SPF)
    Compression mode : Lossy
    Stream size : 165 MiB (1%)
    Title : DVO | 1+1
    Language : Ukrainian
    Service kind : Complete Main
    Default : No
    Forced : No
    Audio #15
    ID : 16
    Format : AC-3
    Format/Info : Audio Coding 3
    Commercial name : Dolby Digital
    Codec ID : A_AC3
    Duration : 2 h 0 min
    Bit rate mode : Constant
    Bit rate : 448 kb/s
    Channel(s) : 6 channels
    Channel layout : L R C LFE Ls Rs
    Sampling rate : 48.0 kHz
    Frame rate : 31.250 FPS (1536 SPF)
    Compression mode : Lossy
    Stream size : 385 MiB (3%)
    Title : Original
    Language : English
    Service kind : Complete Main
    Default : No
    Forced : No
    Text #1
    ID : 17
    Format : UTF-8
    Codec ID : S_TEXT/UTF8
    Codec ID/Info : UTF-8 Plain Text
    Duration : 1 h 54 min
    Bit rate : 64 b/s
    Count of elements : 890
    Stream size : 54.2 KiB (0%)
    Title : Full
    Language : Russian
    Default : No
    Forced : No
    Text #2
    ID : 18
    Format : UTF-8
    Codec ID : S_TEXT/UTF8
    Codec ID/Info : UTF-8 Plain Text
    Duration : 1 h 53 min
    Bit rate : 46 b/s
    Count of elements : 1033
    Stream size : 39.0 KiB (0%)
    Title : Full
    Language : English
    Default : No
    Forced : No
    Menu
    00: 00: 00.000 : 00: 00: 00.000
    00: 02: 17.846 : 00: 02: 17.846
    00: 05: 22.613 : 00: 05: 22.613
    00: 10: 25.916 : 00: 10: 25.916
    00: 16: 31.740 : 00: 16: 31.740
    00: 22: 32.434 : 00: 22: 32.434
    00: 26: 09.609 : 00: 26: 09.609
    00: 30: 49.347 : 00: 30: 49.347
    00: 35: 33.506 : 00: 35: 33.506
    00: 40: 43.940 : 00: 40: 43.940
    00: 43: 22.266 : 00: 43: 22.266
    00: 50: 10.215 : 00: 50: 10.215
    00: 53: 56.524 : 00: 53: 56.524
    00: 56: 57.622 : 00: 56: 57.622
    01: 00: 23.453 : 01: 00: 23.453
    01: 04: 19.522 : 01: 04: 19.522
    01: 08: 01.952 : 01: 08: 01.952
    01: 15: 01.662 : 01: 15: 01.662
    01: 18: 51.350 : 01: 18: 51.350
    01: 23: 02.102 : 01: 23: 02.102
    01: 25: 47.767 : 01: 25: 47.767
    01: 28: 27.885 : 01: 28: 27.885
    01: 31: 29.734 : 01: 31: 29.734
    01: 35: 45.448 : 01: 35: 45.448
    01: 37: 20.501 : 01: 37: 20.501
    01: 38: 55.220 : 01: 38: 55.220
    01: 42: 29.685 : 01: 42: 29.685
    01: 46: 56.493 : 01: 46: 56.493
    01: 55: 49.150 : 01: 55: 49.150x264 info: profile High, level 4.1, 4: 2: 0, 8-bit
    x264 info: frame I: 1265 Avg QP: 17.55 size: 172621
    x264 info: frame P: 29762 Avg QP: 19.55 size: 97139
    x264 info: frame B: 141634 Avg QP: 21.93 size: 60612
    x264 info: consecutive B-frames: 1.4% 1.0% 2.5% 17.0% 8.0% 32.0% 5.1% 11.5% 2.8% 4.0% 2.0% 7.9% 1.2% 0.8% 0.7% 1.6% 0.3%
    x264 info: mb I I16..4: 2.2% 86.7% 11.1%
    x264 info: mb P I16..4: 0.4% 38.9% 2.5% P16..4: 17.2% 23.0% 14.5% 1.6% 0.1% skip: 1.8%
    x264 info: mb B I16..4: 0.1% 11.1% 0.7% B16..8: 35.5% 23.3% 8.5% direct: 13.3% skip: 7.7% L0: 46.6% L1: 37.6% BI: 15.8%
    x264 info: 8x8 transform intra: 93.1% inter: 63.2%
    x264 info: direct mvs spatial: 97.9% temporal: 2.1%
    x264 info: coded y, uvDC, uvAC intra: 95.8% 76.9% 33.9% inter: 72.1% 42.8% 4.9%
    x264 info: i16 v, h, dc, p: 65% 15% 10% 9%
    x264 info: i8 v, h, dc, ddl, ddr, vr, hd, vl, hu: 10% 6% 15% 11% 13% 13% 10% 12% 11%
    x264 info: i4 v, h, dc, ddl, ddr, vr, hd, vl, hu: 49% 4% 11% 5% 7% 7% 5% 6% 5%
    x264 info: i8c dc, h, v, p: 32% 30% 22% 16%
    x264 info: Weighted P-Frames: Y: 8.7% UV: 4.3%
    x264 info: ref P L0: 41.9% 7.2% 17.7% 10.0% 7.4% 5.8% 4.7% 3.0% 2.1% 0.1% 0.0%
    x264 info: ref B L0: 60.1% 16.1% 9.6% 5.5% 4.0% 2.9% 1.5% 0.3%
    x264 info: ref B L1: 89.2% 10.8%
    x264 info: kb/s: 12990.88
    Скриншоты для ознакомления


    Все одноименные релизы в Клубе Время раздачи: 24/7 до первых 10-и скачавших

    Онлайн видео Один дома 2: Затерянный в Нью-Йорке



    Один дома 2: Затерянный в Нью-Йорке / Home alone 2: Lost in New York (1992) BDRip [H.264 / 720p] торрент скачать бесплатно
    Рейтинг →
     (голосов: 1, оценка 4/5, голосовать можно 1 раз )

    Другие торренты по теме:

  • Один дома 2: Затерянный в Нью-Йорке / Home Alone 2: Lost in New York (1992) BDRip [h264] [AVO]
  • Один дома / Home Alone (1990) [H.264 / 1080p] [hand made 60fps] скачать через торрент бесплатно
  • Один дома / Home Alone (1990) BDRip [H.264 / 720p] [Remastered] скачать через торрент бесплатно
  • Один дома 2: Затерянный в Нью-Йорке / Home Alone 2: Lost in New York (1992) BDRip [H.264 / 1080p-LQ] скачать через торрент бесплатно
  • Один дома / Home Alone (1990) BDRip [H.264 / 1080p-LQ] скачать через торрент бесплатно
  • Один дома / Home Alone (1990) HDRip [Remastered]
  • Один дома / Home Alone (1990) BDRip [H.265 / 720p-LQ]
  • Один дома 2: Затерянный в Нью-Йорке / Home Alone 2: Lost in New York (1992) BDRip [H.265 / 720p-LQ]


    • Комментарии (0):

      Информация

      Информация

        Посетители, находящиеся в группе Гости, не могут оставлять комментарии в данной новости.

        ↓ Меню




        ↓ Опрос

        Вы добавили сайт в закладки?
        Да
        Нет


        Популярное