.
Авторизация | Регистрация
bitok.xyz
Торрент скачать бесплатно Фильмы торрент скачать В поисках приключений / The Quest (1996) BDRemux [H.264 / 1080p] торрент скачать бесплатно


    В поисках приключений / The Quest (1996) BDRemux [H.264 / 1080p] торрент скачать бесплатно

    Дата: 27-01-2020, 05:00 | .torrent скачали: 1

    В поисках приключений / The Quest (1996) BDRemux [H.264 / 1080p]Производство: США, Канада/MDP Worldwide, Selima Films AVV, Signature Pictures
    Жанр: Боевик, Триллер, Драма, Приключения
    Режиссер: Жан-Клод Ван Дамм
    Продюсер: Моше Дайамант, Джейсон Кларк, Роберт Хэцки

    Актеры
    Жан-Клод Ван Дамм, Роджер Мур, Джеймс Римар, Джанет Ганн, Джек МакГи, Аки Алеонг, Абдель Кисси, Луис Мэндилор, Чанг Чинг Пенг Чаплин, Райан Кутрона

    Описание

    Уличный преступник отправляется в путешествие в поисках своего прошлого и будущего. Его одиссея проходит через самые экзотические страны и живописнейшие уголки земного шара, от подворотен Нью-Йорка до загадочного волшебного тибетского Затерянного Города.

    Возраст: 12+ (зрителям, достигшим 12 лет)
    Рейтинг MPAA: PG-13 (детям до 13 лет просмотр нежелателен)
    Релиз от: R.G. Goldenshara
    Продолжительность: 01: 34: 35
    Качество видео: BDRemux 1080p
    Перевод: Двухголосый профессиональный, Многоголосый профессиональный, Авторский
    Субтитры: Русские, Английские
    Видео: AVC/H.264, 1920x1080 (16: 9), ~32.9 Mbps, 23.976 fps
    Аудио #1: DTS, 6 ch, 48.0 KHz, 1509 kbps | Русский - (DVO Twister)
    Аудио #2: AC3, 2 ch, 48.0 KHz, 192 kbps | Русский - (MVO ТК Россия (студия Нота))
    Аудио #3: AC3, 2 ch, 48.0 KHz, 192 kbps | Русский - (MVO)
    Аудио #4: AC3, 2 ch, 48.0 KHz, 192 kbps | Русский - (MVO ОРТ)
    Аудио #5: AC3, 2 ch, 48.0 KHz, 192 kbps | Русский - (DVO ТВЦ)
    Аудио #6: AC3, 2 ch, 48.0 KHz, 192 kbps | Русский - (DVO Екатеринбург Арт)
    Аудио #7: DTS, 6 ch, 48.0 KHz, 1510 kbps | Русский - (AVO Ю. Живов)
    Аудио #8: AC3, 2 ch, 48.0 KHz, 192 kbps | Русский - (AVO А. Гаврилов)
    Аудио #9: AC3, 2 ch, 48.0 KHz, 192 kbps | Русский - (AVO С. Визгунов)
    Аудио #10: AC3, 2 ch, 48.0 KHz, 192 kbps | Русский - (AVO С. Кузнецов)
    Аудио #11: AC3, 2 ch, 48.0 KHz, 192 kbps | Русский - (AVO А. Кашкин)
    Аудио #12: DTS-HD MA, 6 ch, 48.0 KHz, 4490 kbps | Английский
    General
    Unique ID : 221398369168217175124774914602924803574 (0xA68FC65EA9F73D3B8F05FC6A036885F6)
    Complete name : E: Мои рипыВ поисках приключений.1996.BDRemux.1080p.R.G. Goldenshara.mkv
    Format : Matroska
    Format version : Version 4/Version 2
    File size : 27.8 GiB
    Duration : 1h 34mn
    Overall bit rate mode : Variable
    Overall bit rate : 42.2 Mbps
    Encoded date : UTC 2020-01-19 19: 31: 27
    Writing application : mkvmerge v6.8.0 (\'Theme for Great Cities\') 64bit built on Mar 2 2014 21: 34: 26
    Writing library : libebml v1.3.0 + libmatroska v1.4.1
    Video
    ID : 1
    Format : AVC
    Format/Info : Advanced Video Codec
    Format profile : High@L4.1
    Format settings, CABAC : Yes
    Format settings, ReFrames : 4 frames
    Codec ID : V_MPEG4/ISO/AVC
    Duration : 1h 34mn
    Bit rate mode : Variable
    Bit rate : 34.1 Mbps
    Maximum bit rate : 35.0 Mbps
    Width : 1 920 pixels
    Height : 1 080 pixels
    Display aspect ratio : 16: 9
    Frame rate mode : Constant
    Frame rate : 23.976 fps
    Color space : YUV
    Chroma subsampling : 4: 2: 0
    Bit depth : 8 bits
    Scan type : Progressive
    Bits/(Pixel*Frame) : 0.687
    Stream size : 22.6 GiB (81%)
    Language : English
    Default : Yes
    Forced : No
    Color primaries : BT.709
    Transfer characteristics : BT.709
    Matrix coefficients : BT.709
    Audio #1
    ID : 2
    Format : DTS
    Format/Info : Digital Theater Systems
    Codec ID : A_DTS
    Duration : 1h 34mn
    Bit rate mode : Constant
    Bit rate : 1 510 Kbps
    Channel(s) : 6 channels
    Channel positions : Front: L C R, Side: L R, LFE
    Sampling rate : 48.0 KHz
    Bit depth : 24 bits
    Compression mode : Lossy
    Stream size : 1 021 MiB (4%)
    Title : Двухголосый, Twister
    Language : Russian
    Default : Yes
    Forced : No
    Audio #2
    ID : 3
    Format : AC-3
    Format/Info : Audio Coding 3
    Mode extension : CM (complete main)
    Format settings, Endianness : Big
    Codec ID : A_AC3
    Duration : 1h 34mn
    Bit rate mode : Constant
    Bit rate : 192 Kbps
    Channel(s) : 2 channels
    Channel positions : Front: L R
    Sampling rate : 48.0 KHz
    Bit depth : 16 bits
    Compression mode : Lossy
    Stream size : 130 MiB (0%)
    Title : Многоголосый, ТК Россия (студия Нота)
    Language : Russian
    Default : No
    Forced : No
    Audio #3
    ID : 4
    Format : AC-3
    Format/Info : Audio Coding 3
    Mode extension : CM (complete main)
    Format settings, Endianness : Big
    Codec ID : A_AC3
    Duration : 1h 34mn
    Bit rate mode : Constant
    Bit rate : 192 Kbps
    Channel(s) : 2 channels
    Channel positions : Front: L R
    Sampling rate : 48.0 KHz
    Bit depth : 16 bits
    Compression mode : Lossy
    Stream size : 130 MiB (0%)
    Title : Многоголосый
    Language : Russian
    Default : No
    Forced : No
    Audio #4
    ID : 5
    Format : AC-3
    Format/Info : Audio Coding 3
    Mode extension : CM (complete main)
    Format settings, Endianness : Big
    Codec ID : A_AC3
    Duration : 1h 34mn
    Bit rate mode : Constant
    Bit rate : 192 Kbps
    Channel(s) : 2 channels
    Channel positions : Front: L R
    Sampling rate : 48.0 KHz
    Bit depth : 16 bits
    Compression mode : Lossy
    Stream size : 130 MiB (0%)
    Title : Многоголосый, ОРТ
    Language : Russian
    Default : No
    Forced : No
    Audio #5
    ID : 6
    Format : AC-3
    Format/Info : Audio Coding 3
    Mode extension : CM (complete main)
    Format settings, Endianness : Big
    Codec ID : A_AC3
    Duration : 1h 34mn
    Bit rate mode : Constant
    Bit rate : 192 Kbps
    Channel(s) : 2 channels
    Channel positions : Front: L R
    Sampling rate : 48.0 KHz
    Bit depth : 16 bits
    Compression mode : Lossy
    Stream size : 130 MiB (0%)
    Title : Двухголосый, ТВЦ
    Language : Russian
    Default : No
    Forced : No
    Audio #6
    ID : 7
    Format : AC-3
    Format/Info : Audio Coding 3
    Mode extension : CM (complete main)
    Format settings, Endianness : Big
    Codec ID : A_AC3
    Duration : 1h 34mn
    Bit rate mode : Constant
    Bit rate : 192 Kbps
    Channel(s) : 2 channels
    Channel positions : Front: L R
    Sampling rate : 48.0 KHz
    Bit depth : 16 bits
    Compression mode : Lossy
    Stream size : 130 MiB (0%)
    Title : Двухголосый, Екатеринбург Арт
    Language : Russian
    Default : No
    Forced : No
    Audio #7
    ID : 8
    Format : DTS
    Format/Info : Digital Theater Systems
    Codec ID : A_DTS
    Duration : 1h 34mn
    Bit rate mode : Constant
    Bit rate : 1 510 Kbps
    Channel(s) : 6 channels
    Channel positions : Front: L C R, Side: L R, LFE
    Sampling rate : 48.0 KHz
    Bit depth : 24 bits
    Compression mode : Lossy
    Stream size : 1 021 MiB (4%)
    Title : Одноголосый, Ю. Живов
    Language : Russian
    Default : No
    Forced : No
    Audio #8
    ID : 9
    Format : AC-3
    Format/Info : Audio Coding 3
    Mode extension : CM (complete main)
    Format settings, Endianness : Big
    Codec ID : A_AC3
    Duration : 1h 34mn
    Bit rate mode : Constant
    Bit rate : 192 Kbps
    Channel(s) : 2 channels
    Channel positions : Front: L R
    Sampling rate : 48.0 KHz
    Bit depth : 16 bits
    Compression mode : Lossy
    Stream size : 130 MiB (0%)
    Title : Одноголосый, А. Гаврилов
    Language : Russian
    Default : No
    Forced : No
    Audio #9
    ID : 10
    Format : AC-3
    Format/Info : Audio Coding 3
    Mode extension : CM (complete main)
    Format settings, Endianness : Big
    Codec ID : A_AC3
    Duration : 1h 34mn
    Bit rate mode : Constant
    Bit rate : 192 Kbps
    Channel(s) : 2 channels
    Channel positions : Front: L R
    Sampling rate : 48.0 KHz
    Bit depth : 16 bits
    Compression mode : Lossy
    Stream size : 130 MiB (0%)
    Title : Одноголосый, С. Визгунов
    Language : Russian
    Default : No
    Forced : No
    Audio #10
    ID : 11
    Format : AC-3
    Format/Info : Audio Coding 3
    Mode extension : CM (complete main)
    Format settings, Endianness : Big
    Codec ID : A_AC3
    Duration : 1h 34mn
    Bit rate mode : Constant
    Bit rate : 192 Kbps
    Channel(s) : 2 channels
    Channel positions : Front: L R
    Sampling rate : 48.0 KHz
    Bit depth : 16 bits
    Compression mode : Lossy
    Stream size : 130 MiB (0%)
    Title : Одноголосый, С. Кузнецов
    Language : Russian
    Default : No
    Forced : No
    Audio #11
    ID : 12
    Format : AC-3
    Format/Info : Audio Coding 3
    Mode extension : CM (complete main)
    Format settings, Endianness : Big
    Codec ID : A_AC3
    Duration : 1h 34mn
    Bit rate mode : Constant
    Bit rate : 192 Kbps
    Channel(s) : 2 channels
    Channel positions : Front: L R
    Sampling rate : 48.0 KHz
    Bit depth : 16 bits
    Compression mode : Lossy
    Stream size : 130 MiB (0%)
    Title : Одноголосый, А. Кашкин
    Language : Russian
    Default : No
    Forced : No
    Audio #12
    ID : 13
    Format : DTS
    Format/Info : Digital Theater Systems
    Format profile : MA/Core
    Codec ID : A_DTS
    Duration : 1h 34mn
    Bit rate mode : Variable
    Bit rate : 2 416 Kbps/1 510 Kbps
    Channel(s) : 6 channels
    Channel positions : Front: L C R, Side: L R, LFE
    Sampling rate : 48.0 KHz
    Bit depth : 24 bits
    Compression mode : Lossless/Lossy
    Language : English
    Default : No
    Forced : No
    Text #1
    ID : 14
    Format : UTF-8
    Codec ID : S_TEXT/UTF8
    Codec ID/Info : UTF-8 Plain Text
    Language : Russian
    Default : No
    Forced : No
    Text #2
    ID : 15
    Format : UTF-8
    Codec ID : S_TEXT/UTF8
    Codec ID/Info : UTF-8 Plain Text
    Language : English
    Default : No
    Forced : No
    Menu
    00: 00: 00.000 : en: 1. Things Change
    00: 03: 02.307 : en: 2. Main Titles: Tibet, 1925
    00: 07: 03.923 : en: 3. The Clown and His Kids
    00: 14: 49.889 : en: 4. The Stowaway
    00: 20: 49.665 : en: 5. Muay Thai Island
    00: 27: 52.504 : en: 6. Bangkok: 6 Months Later
    00: 35: 59.282 : en: 7. An Almost Perfect Plan
    00: 40: 10.074 : en: 8. On the Way to the Lost City
    00: 46: 52.184 : en: 9. Maxie\'s Gift
    00: 52: 59.384 : en: 10. The Mystical Arena
    00: 59: 32.569 : en: 11. The Second Day
    01: 09: 12.857 : en: 12. The Death of a Brother
    01: 14: 04.273 : en: 13. The Semi-Finals
    01: 21: 10.740 : en: 14. The Final Event
    01: 25: 49.644 : en: 15. The Greatest Warrior
    01: 29: 48.299 : en: 16. The Book Closes (End Titles)

    File: E: Мои рипыВ поисках приключений.1996.BDRemux.1080p.R.G. Goldenshara.mkv
    Duration: 01: 34: 35 (5675.01)
    Track #1: video
    lang: Unknown (1)
    codc: V_MPEG4/ISO/AVC - H264/AVC (22)
    reso: 1920x1080 - 16: 9
    fram: 23.976 fps
    rate: 32907 kbps (32906.9)
    dura: 01: 34: 35 (5674.96)
    size: 21.74 GB (23343175230)
    Track #2: audio (￐ヤ￐ᄇ￑テ￑ナ￐ᄈ￐ᄒ￐ᄏ￐ᄒ￑チ￑ヒ￐ᄍ, Twister)
    lang: rus - Russian (15)
    codc: A_DTS - DTS (13)
    chan: 6 - 5.1 Surround
    samp: 48000 Hz
    rate: 1509 kbps (1509.12)
    dura: 01: 34: 35 (5674.94)
    size: 1.00 GB (1070520794)
    Track #3: audio (￐ワ￐ᄑ￐ᄒ￐ᄈ￐ᄒ￐ᄈ￐ᄒ￐ᄏ￐ᄒ￑チ￑ヒ￐ᄍ, ￐ᄁ￐レ ￐ᅠ￐ᄒ￑チ￑チ￐ᄌ￑マ (￑チ￑ツ￑テ￐ᄡ￐ᄌ￑マ ￐ン￐ᄒ￑ツ￐ᄚ))
    lang: rus - Russian (15)
    codc: A_AC3 - AC3 (2)
    chan: 2 - Stereo
    samp: 48000 Hz
    rate: 192 kbps (192.04)
    dura: 01: 34: 35 (5674.88)
    size: 129.92 MB (136227295)
    Track #4: audio (￐ワ￐ᄑ￐ᄒ￐ᄈ￐ᄒ￐ᄈ￐ᄒ￐ᄏ￐ᄒ￑チ￑ヒ￐ᄍ)
    lang: rus - Russian (15)
    codc: A_AC3 - AC3 (2)
    chan: 2 - Stereo
    samp: 48000 Hz
    rate: 192 kbps (192.04)
    dura: 01: 34: 35 (5674.88)
    size: 129.92 MB (136227293)
    Track #5: audio (￐ワ￐ᄑ￐ᄒ￐ᄈ￐ᄒ￐ᄈ￐ᄒ￐ᄏ￐ᄒ￑チ￑ヒ￐ᄍ, ￐゙￐ᅠ￐ᄁ)
    lang: rus - Russian (15)
    codc: A_AC3 - AC3 (2)
    chan: 2 - Stereo
    samp: 48000 Hz
    rate: 192 kbps (192.04)
    dura: 01: 34: 35 (5674.88)
    size: 129.92 MB (136227289)
    Track #6: audio (￐ヤ￐ᄇ￑テ￑ナ￐ᄈ￐ᄒ￐ᄏ￐ᄒ￑チ￑ヒ￐ᄍ, ￐ᄁ￐メ￐ᆭ)
    lang: rus - Russian (15)
    codc: A_AC3 - AC3 (2)
    chan: 2 - Stereo
    samp: 48000 Hz
    rate: 192 kbps (192.04)
    dura: 01: 34: 35 (5674.88)
    size: 129.92 MB (136226508)
    Track #7: audio (￐ヤ￐ᄇ￑テ￑ナ￐ᄈ￐ᄒ￐ᄏ￐ᄒ￑チ￑ヒ￐ᄍ, ￐ユ￐ᄎ￐ᄚ￑ツ￐ᄉ￑タ￐ᄌ￐ᄑ￐ᄆ￑テ￑タ￐ᄈ ￐ミ￑タ￑ツ)
    lang: rus - Russian (15)
    codc: A_AC3 - AC3 (2)
    chan: 2 - Stereo
    samp: 48000 Hz
    rate: 192 kbps (192.04)
    dura: 01: 34: 35 (5674.88)
    size: 129.92 MB (136226510)
    Track #8: audio (￐゙￐ᄡ￐ᄑ￐ᄒ￐ᄈ￐ᄒ￐ᄏ￐ᄒ￑チ￑ヒ￐ᄍ, ￐ᆴ. ￐ヨ￐ᄌ￐ᄇ￐ᄒ￐ᄇ)
    lang: rus - Russian (15)
    codc: A_DTS - DTS (13)
    chan: 6 - 5.1 Surround
    samp: 48000 Hz
    rate: 1510 kbps (1509.87)
    dura: 01: 34: 35 (5674.94)
    size: 1.00 GB (1071052800)
    Track #9: audio (￐゙￐ᄡ￐ᄑ￐ᄒ￐ᄈ￐ᄒ￐ᄏ￐ᄒ￑チ￑ヒ￐ᄍ, ￐ミ. ￐モ￐ᄚ￐ᄇ￑タ￐ᄌ￐ᄏ￐ᄒ￐ᄇ)
    lang: rus - Russian (15)
    codc: A_AC3 - AC3 (2)
    chan: 2 - Stereo
    samp: 48000 Hz
    rate: 192 kbps (192.04)
    dura: 01: 34: 35 (5674.88)
    size: 129.92 MB (136227288)
    Track #10: audio (￐゙￐ᄡ￐ᄑ￐ᄒ￐ᄈ￐ᄒ￐ᄏ￐ᄒ￑チ￑ヒ￐ᄍ, ￐ᄀ. ￐メ￐ᄌ￐ᄋ￐ᄈ￑テ￐ᄑ￐ᄒ￐ᄇ)
    lang: rus - Russian (15)
    codc: A_AC3 - AC3 (2)
    chan: 2 - Stereo
    samp: 48000 Hz
    rate: 192 kbps (192.04)
    dura: 01: 34: 35 (5674.88)
    size: 129.92 MB (136226506)
    Track #11: audio (￐゙￐ᄡ￐ᄑ￐ᄒ￐ᄈ￐ᄒ￐ᄏ￐ᄒ￑チ￑ヒ￐ᄍ, ￐ᄀ. ￐レ￑テ￐ᄋ￐ᄑ￐ᄉ￑ニ￐ᄒ￐ᄇ)
    lang: rus - Russian (15)
    codc: A_AC3 - AC3 (2)
    chan: 2 - Stereo
    samp: 48000 Hz
    rate: 192 kbps (192.04)
    dura: 01: 34: 35 (5674.88)
    size: 129.92 MB (136226506)
    Track #12: audio (￐゙￐ᄡ￐ᄑ￐ᄒ￐ᄈ￐ᄒ￐ᄏ￐ᄒ￑チ￑ヒ￐ᄍ, ￐ミ. ￐レ￐ᄚ￑ネ￐ᄎ￐ᄌ￐ᄑ)
    lang: rus - Russian (15)
    codc: A_AC3 - AC3 (2)
    chan: 2 - Stereo
    samp: 48000 Hz
    rate: 192 kbps (192.04)
    dura: 01: 34: 35 (5674.88)
    size: 129.92 MB (136227280)
    Track #13: audio
    lang: Unknown (1)
    codc: A_DTS - DTS (13)
    chan: 6 - 5.1 Surround
    samp: 48000 Hz
    rate: 4490 kbps (4489.66)
    dura: 01: 34: 35 (5674.94)
    size: 2.97 GB (3184818147)
    Track #14: subtitles
    lang: rus - Russian (15)
    type: S_TEXT/UTF8 - SRT (3)
    size: 28.29 KB (28964)
    Track #15: subtitles
    lang: Unknown (1)
    type: S_TEXT/UTF8 - SRT (3)
    size: 18.28 KB (18718)
    Sizes: (check sanity)
    disk: 27.85 GB (29900687487)
    trac: 7.84 GB (8420820648) based on track size
    bitr: 27.84 GB (29895647112) based on bitrate
    tdif: 20.00 GB (21479866839) 71.83%
    bdif: 4.81 MB (5040374) 0.01%


    Онлайн видео В поисках приключений



    В поисках приключений / The Quest (1996) BDRemux [H.264 / 1080p] торрент скачать бесплатно
    Рейтинг →
     (голосов: 1, оценка 4/5, голосовать можно 1 раз )

    Другие торренты по теме:

  • Форт Росс: В поисках приключений (2014) WEBRip [H.264 / 720p-LQ]
  • Форт Росс: В поисках приключений (2014) WEBRip
  • Форт Росс: В поисках приключений (2014) WEBRip
  • В поисках приключений / The Quest (1996) BDRip [H.264] скачать через торрент бесплатно
  • Форт Росс: В поисках приключений (2014) HDTV [H.264 / 1080i]
  • В поисках приключений / The Quest (1996) BDRip [H.265 / 1080p] [10-bit]
  • В поисках приключений / The Quest (1996) BDRip [H.264 / 1080p]
  • В поисках приключений / The Quest (1996) BDRip [H.264 / 720p]


    • Комментарии (0):

      Информация

      Информация

        Посетители, находящиеся в группе Гости, не могут оставлять комментарии в данной новости.

        ↓ Меню




        ↓ Опрос

        Вы добавили сайт в закладки?
        Да
        Нет


        Популярное