.
Авторизация | Регистрация
bitok.xyz
Торрент скачать бесплатно Фильмы торрент скачать Король вне закона / Outlaw King (2018) WEBRip [H.265 / 2160p] [4K, HDR, 10-bit] торрент скачать бесплатно


    Король вне закона / Outlaw King (2018) WEBRip [H.265 / 2160p] [4K, HDR, 10-bit] торрент скачать бесплатно

    Дата: 27-01-2020, 05:00 | .torrent скачали: 0

    Король вне закона / Outlaw King (2018) WEBRip [H.265 / 2160p] [4K, HDR, 10-bit]Производство: Великобритания, США/Anonymous Content, Clockwork Sessions, Невафильм, Sigma Films
    Жанр: история, биография, драма, военный
    Режиссер: Дэвид Маккензи

    Актеры
    Крис Пайн, Аарон Тейлор-Джонсон, Флоренс Пью, Билли Хоул, Тони Кёрран, Лорни МакФадьен, Аластер Маккензи, Джеймс Космо, Каллэн Мулвей, Стивен Диллэйн

    Описание

    История Роберта Брюса, одного из величайших шотландских монархов, организатора обороны страны в начальный период войны за независимость против Англии.

    Рейтинг MPAA: R (лицам до 17 лет обязательно присутствие взрослого)
    Релиз от: DEFLATE
    Продолжительность: 02: 01: 39
    Качество видео: WEBRip
    Перевод: Дублированный (Невафильм)
    Субтитры: русские (форсированные, полные), английские (полные, для слабослышащих)
    Видео: HEVC/H.265, 3840x1604, ~18, 1 Mbps
    Аудио 1: E-AC3, 6 ch, 448 Kbps (английский)
    Аудио 2: AC3, 6 ch, 384 Kbps (русский)
    Общее
    Уникальный идентификатор : 278764864232281296655661516410953964898 (0xD1B828F2460009AEF7131BF66ADC9D62)
    Полное имя : M: ФильмыИностранныеКороль вне закона (Outlaw King).mkv
    Формат : Matroska
    Версия формата : Version 4
    Размер файла : 16, 0 Гбайт
    Продолжительность : 2 ч. 1 м.
    Общий поток : 18, 8 Мбит/сек
    Название фильма : Король вне закона/Outlaw King
    Кодирование произвёл : DEFLATE
    Дата выпуска : 2018
    Дата кодирования : UTC 2019-12-01 07: 05: 31
    Программа кодирования : mkvmerge v34.0.0 (\'Sight and Seen\') 64-bit
    Библиотека кодирования : libebml v1.3.7 + libmatroska v1.5.0
    Обложка : Yes
    Attachments : cover.jpg
    Released by : Buba5473 for NNM-Club
    Видео
    Идентификатор : 1
    Формат : HEVC
    Формат/Информация : High Efficiency Video Coding
    Профиль формата : Main10@L5.1@High
    HDR format : SMPTE ST 2086, HDR10 compatible
    Идентификатор кодека : V_MPEGH/ISO/HEVC
    Продолжительность : 2 ч. 1 м.
    Битрейт : 18, 1 Мбит/сек
    Ширина : 3840 пикселей
    Высота : 1604 пикселя
    Соотношение сторон : 2, 40: 1
    Режим частоты кадров : Постоянный
    Частота кадров : 24, 000 кадра/сек
    Цветовое пространство : YUV
    Субдискретизация насыщенности : 4: 2: 0 (Type 2)
    Битовая глубина : 10 бит
    Бит/(Пиксели*Кадры) : 0.122
    Размер потока : 15, 3 Гбайт (96%)
    Заголовок : Outlaw.King.2018.2160p.WEBRip.X265-DEFLATE
    Библиотека кодирования : x265 2.8+68-fa57fa584898: LinuxGCC 7.3.064 bit 10bit
    Настройки программы : cpuid=1111039/frame-threads=5/wpp/no-pmode/no-pme/no-psnr/no-ssim/log-level=2/input-csp=1/input-res=3840x1604/interlace=0/total-frames=0/level-idc=51/high-tier=1/uhd-bd=0/ref=4/no-allow-non-conformance/repeat-t_heads/annexb/no-aud/no-hrd/info/hash=0/no-temporal-layers/open-gop/min-keyint=24/keyint=250/gop-lookahead=0/bframes=11/b-adapt=2/b-pyramid/bframe-bias=0/rc-lookahead=25/lookahead-slices=4/scenecut=40/radl=0/no-intra-refresh/ctu=64/min-cu-size=8/rect/no-amp/max-tu-size=32/tu-inter-depth=1/tu-intra-depth=1/limit-tu=0/rdoq-level=2/dynamic-rd=0.00/no-ssim-rd/signhide/no-tskip/nr-intra=0/nr-inter=0/no-constrained-intra/strong-intra-smoothing/max-merge=3/limit-refs=3/limit-modes/me=2/subme=6/merange=57/temporal-mvp/weightp/no-weightb/no-analyze-src-pics/deblock=-3: -3/no-sao/no-sao-non-deblock/rd=4/no-early-skip/no-rskip/no-fast-intra/no-tskip-fast/no-cu-lossless/no-b-intra/no-splitrd-skip/rdpenalty=0/psy-rd=4.00/psy-rdoq=10.00/no-rd-refine/no-lossless/cbqpoffs=0/crqpoffs=0/rc=crf/crf=21.0/qcomp=0.60/qpstep=1/stats-write=0/stats-read=0/vbv-maxrate=160000/vbv-bufsize=160000/vbv-init=0.9/crf-max=0.0/crf-min=0.0/ipratio=1.25/pbratio=1.20/aq-mode=3/aq-strength=0.65/no-cutree/zone-count=0/no-strict-cbr/qg-size=32/rc-grain/qpmax=69/qpmin=0/const-vbv/sar=1/overscan=0/videoformat=5/range=0/colorprim=9/transfer=16/colormatrix=9/chromaloc=1/chromaloc-top=2/chromaloc-bottom=2/display-window=0/master-display=G(13250, 34500)B(7500, 3000)R(34000, 16000)WP(15635, 16450)L(40000000, 50)/max-cll=700, 249/min-luma=0/max-luma=1023/log2-max-poc-lsb=8/vui-timing-info/vui-hrd-info/slices=1/no-opt-qp-pps/no-opt-ref-list-length-pps/no-multi-pass-opt-rps/scenecut-bias=0.05/no-opt-cu-delta-qp/no-aq-motion/hdr/hdr-opt/no-dhdr10-opt/no-idr-recovery-sei/analysis-reuse-level=5/scale-factor=0/refine-intra=0/refine-inter=0/refine-mv=0/no-limit-sao/ctu-info=0/no-lowpass-dct/refine-mv-type=0/copy-pic=1/max-ausize-factor=1.0/no-dynamic-refine/no-single-sei
    Default : Да
    Forced : Нет
    Color range : Limited
    Основные цвета : BT.2020
    Характеристики трансфера : PQ
    Коэффициенты матрицы : BT.2020 non-constant
    Mastering display color primaries : Display P3
    Mastering display luminance : min: 0.0050 cd/m2, max: 4000 cd/m2
    Maximum Content Light Level : 700 cd/m2
    Maximum Frame-Average Light Level : 249 cd/m2
    Аудио #1
    Идентификатор : 2
    Формат : E-AC-3 JOC
    Формат/Информация : Enhanced AC-3 with Joint Object Coding
    Коммерческое название : Dolby Digital Plus with Dolby Atmos
    Идентификатор кодека : A_EAC3
    Продолжительность : 2 ч. 1 м.
    Вид битрейта : Постоянный
    Битрейт : 448 Кбит/сек
    Каналы : 6 каналов
    Channel layout : L R C LFE Ls Rs
    Частота : 48, 0 КГц
    Частота кадров : 31, 250 кадров/сек (1536 SPF)
    Метод сжатия : С потерями
    Размер потока : 388 Мбайт (2%)
    Язык : English
    Service kind : Complete Main
    Default : Нет
    Forced : Нет
    Complexity index : 16
    Number of dynamic objects : 15
    Bed channel count : 1 канал
    Bed channel configuration : LFE
    Аудио #2
    Идентификатор : 6
    Формат : AC-3
    Формат/Информация : Audio Coding 3
    Коммерческое название : Dolby Digital
    Идентификатор кодека : A_AC3
    Продолжительность : 2 ч. 1 м.
    Вид битрейта : Постоянный
    Битрейт : 384 Кбит/сек
    Каналы : 6 каналов
    Channel layout : L R C LFE Ls Rs
    Частота : 48, 0 КГц
    Частота кадров : 31, 250 кадров/сек (1536 SPF)
    Битовая глубина : 16 бит
    Метод сжатия : С потерями
    Размер потока : 334 Мбайт (2%)
    Заголовок : Невафильм
    Язык : Russian
    Service kind : Complete Main
    Default : Да
    Forced : Нет
    Текст #1
    Идентификатор : 3
    Формат : UTF-8
    Идентификатор кодека : S_TEXT/UTF8
    Идентификатор кодека/Информация : UTF-8 Plain Text
    Продолжительность : 1 ч. 51 м.
    Битрейт : 39 бит/сек
    Count of elements : 1144
    Размер потока : 32, 2 Кбайт (0%)
    Заголовок : English
    Язык : English
    Default : Нет
    Forced : Нет
    Текст #2
    Идентификатор : 4
    Формат : UTF-8
    Идентификатор кодека : S_TEXT/UTF8
    Идентификатор кодека/Информация : UTF-8 Plain Text
    Продолжительность : 1 ч. 59 м.
    Битрейт : 47 бит/сек
    Count of elements : 1387
    Размер потока : 41, 6 Кбайт (0%)
    Заголовок : English (SDH)
    Язык : English
    Default : Нет
    Forced : Нет
    Текст #3
    Идентификатор : 5
    Формат : UTF-8
    Идентификатор кодека : S_TEXT/UTF8
    Идентификатор кодека/Информация : UTF-8 Plain Text
    Продолжительность : 2 ч. 0 м.
    Битрейт : 63 бит/сек
    Count of elements : 1198
    Размер потока : 56, 1 Кбайт (0%)
    Заголовок : Russian
    Язык : Russian
    Default : Нет
    Forced : Нет
    Текст #4
    Идентификатор : 7
    Формат : UTF-8
    Идентификатор кодека : S_TEXT/UTF8
    Идентификатор кодека/Информация : UTF-8 Plain Text
    Продолжительность : 2 ч. 0 м.
    Битрейт : 3 бит/сек
    Count of elements : 43
    Размер потока : 2, 84 Кбайт (0%)
    Заголовок : Форсированные
    Язык : Russian
    Default : Да
    Forced : Нет
    XMP
    Xmp.video.FileName : M: ФильмыИностранныеКороль вне закона (Outlaw King).mkv
    Xmp.video.FileSize : 3.70028
    Xmp.video.MimeType : video/matroska
    Xmp.video.EBMLVersion : 1
    Xmp.video.EBMLReadVersion : 1
    Xmp.video.DocType : matroska
    Xmp.video.DocTypeVersion : 4
    Xmp.video.DocTypeReadVersion : 2
    Xmp.video.TimecodeScale : 0.001
    Xmp.video.MuxingApp : libebml v1.3.7 + libmatroska v1.5.0
    Xmp.video.WritingApp : mkvmerge v34.0.0 (\'Sight and Seen\') 64-bit
    Xmp.video.Duration : 7298720
    Xmp.video.DateUTC : 596876731
    Xmp.video.Title : РљРѕСЂРѕРСЊ РІРЅРµ закона/Outlaw King
    Xmp.video.TotalStream : 39
    Xmp.video.TrackLacing : No
    Xmp.video.Codec : V_MPEGH/ISO/HEVC
    Xmp.video.FrameRate : 24
    Xmp.video.TrackLang : und
    Xmp.video.TrackName : Форсированные
    Xmp.video.Width : 3840
    Xmp.video.Height : 1604
    Xmp.audio.DefaultOn : No
    Xmp.audio.Compressor : A_AC3
    Xmp.audio.DefaultDuration : 32000
    Xmp.audio.SampleRate : 48000
    Xmp.video.SubTDefaultOn : No
    Xmp.video.SubTTrackLacing : No
    Xmp.video.SubTCodec : S_TEXT/UTF8
    Xmp.video.SubTLang : rus
    Xmp.audio.TrackLang : rus
    Xmp.video.AttachFileName : cover.jpg
    Xmp.video.AttachFileMIME : image/jpeg
    Xmp.video.AttachFileUID : 2940819594
    Xmp.video.AspectRatio : 2.35: 1
    H.265/HEVC (High Efficiency Video Coding) - это новый стандарт кодирования видео.
    *Рипы в фомате HEVC, в настоящее время поддерживается не всеми аппаратными проигрывателями.
    *Для корректного воспроизведения может потребоваться обновление ПО.
    *Стандарт H.265/HEVC является логическим продолжением стандарта H.264/AVC (Advanced Video Coding), и характеризуется более эффективными алгоритмами сжатия, а также поддержкой высокого разрешения вплоть до 8K UHD (8192x4320). Первая версия стандарта H.265 была опубликована в начале 2013 года.
    Любителям решения из коробки - установить последнюю версию на выбор:
    Media Player Classic - Black Edition (MPC-BE)
    VLC media player
    Daum Pot Player
    GOM Media Player
    Любителям WMP и других плееров, использующих по умолчанию для воспроизведения системные кодеки+сплитеры - установить K-Lite Codec Pack версии 10.1.0 и выше.
    Любимые плееры, не использующии по умолчанию для воспроизведения системные кодеки+сплитеры, нужно перенастроить на использование оных.Просмотр 4K HDR-контента на ПК

    Скриншоты для ознакомления



    Все одноименные релизы в Клубе
    Время раздачи: с 11: 00 до 21: 00 по Новосибирску (UTC +7) (до появления первых 3-5 скачавших)

    Онлайн видео Король вне закона



    Король вне закона / Outlaw King (2018) WEBRip [H.265 / 2160p] [4K, HDR, 10-bit] торрент скачать бесплатно
    Рейтинг →
     (голосов: 1, оценка 3/5, голосовать можно 1 раз )

    Другие торренты по теме:

  • Король вне закона / Outlaw King (2018) WEBRip [H.264 / 1080p]
  • Король вне закона / Outlaw King (2018) WEB-DL [H.264 / 720p-LQ]
  • Король вне закона / Outlaw King (2018) WEBRip [H.264 / 1080p-LQ]
  • Король вне закона / Outlaw King (2018) WEBRip
  • Король вне закона / Outlaw King (2018) WEBRip [1080p] ATV
  • Король вне закона / Outlaw King (2018) WEB-DLRip [H.264]
  • Король вне закона / Outlaw King (2018) WEBRip [H.264 / 720p]
  • Король вне закона / Outlaw King (2018) WEB-DLRip [H.264] [MP4|1280x534]


    • Комментарии (0):

      Информация

      Информация

        Посетители, находящиеся в группе Гости, не могут оставлять комментарии в данной новости.

        ↓ Меню




        ↓ Опрос

        Вы добавили сайт в закладки?
        Да
        Нет


        Популярное