.
Авторизация | Регистрация
bitok.xyz
Торрент скачать бесплатно Фильмы торрент скачать Зловещая луна / Bad Moon (1996) BDRip [H.264 / 720p] торрент скачать бесплатно


    Зловещая луна / Bad Moon (1996) BDRip [H.264 / 720p] торрент скачать бесплатно

    Дата: 27-01-2020, 05:00 | .torrent скачали: 0

    Зловещая луна / Bad Moon (1996) BDRip [H.264 / 720p]Производство: США/Morgan Creek Productions
    Жанр: Ужасы, Фэнтези, Боевик, Триллер, Драма, Детектив, Приключения
    Режиссер: Эрик Ред
    Продюсер: Джеймс Дж. Робинсон, Гари Барбер, Джакобас Роуз

    Актеры
    Мэриэл Хемингуэй, Майкл Паре, Мейсон Гэмбл, Кен Поуг, Хротгар Мэтьюз, Джоанна Лебовиц, Гэвин Бур, Джулия Монтгомери Браун, Примо

    Описание

    На северо-западе Канады, среди дремучих лесов, ночами, когда восходит зловеще — багровая луна, наступает ужас… Свирепое чудовище, полузверь — получеловек, выходит на охоту за своими жертвами…
    В тех же краях в живописном и уединенном месте проживают в своем семейном особняке Джанет, взрослая женщина, со своим десятилетним сыном Бреттом и овчаркой Тором. Их навешает Тэд Харрисон, брат Джанет, по профессии фотокорреспондент-натуралист. До этого он долго отсутствовал, работая по контракту в Юго-Восточной Азии.
    Джанет находит, что он сильно переменился, что он вообще стал странным и скрытным. Каким же шоком стало для нее открытие, что ее брат и есть страшный монстр-оборотень, что каждую ночь с восходом луны он обращается в дикого зверя…

    Возраст: 18+ (зрителям, достигшим 18 лет. запрещено для детей)
    Рейтинг MPAA: R (лицам до 17 лет обязательно присутствие взрослого)
    Релиз от: k.e.n MegaPeer
    Продолжительность: 01: 19: 52
    Качество видео: BDRip 720p
    Перевод: Дублированный, профессиональный (двухголосый закадровый), авторский (одноголосый закадровый)
    Субтитры: Английские (Full, SDH)
    Видео: AVC/H.264, 1280x546 (2.35: 1), 23.976 fps, 5 263 kbps (0.314 bit/pixel)
    Аудио #1: AC3, 48 kHz, 2 ch, 192 kbps - Русский, DUB (Варус Видео)
    Аудио #2: AC3, 48 kHz, 2 ch, 192 kbps - Русский, DVO (СТС)
    Аудио #3: AC3, 48 kHz, 6 ch, 448 kbps - Русский, AVO (С.Кузнецов)
    Аудио #4: AC3, 48 kHz, 6 ch, 384 kbps - Русский, AVO (Ю.Сербин)
    Аудио #5: AC3, 48 kHz, 6 ch, 448 kbps - Английский, Originalx264 info: frame I: 733 Avg QP: 15.22 size: 118492
    x264 info: frame P: 25353 Avg QP: 17.44 size: 49304
    x264 info: frame B: 88794 Avg QP: 19.26 size: 20420
    Format : Matroska
    Format version : Version 2
    File size : 3.86 GiB
    Duration : 1 h 19 min
    Overall bit rate : 6 926 kb/s
    Encoded date : UTC 2020-01-19 05: 06: 25
    Writing application : mkvmerge v5.3.0 (\'I could have danced\') built on Feb 9 2012 10: 38: 07
    Writing library : libebml v1.2.3 + libmatroska v1.3.0
    Cover : Yes
    Attachments : cover.png
    Video
    ID : 1
    Format : AVC
    Format/Info : Advanced Video Codec
    Format profile : High@L4.1
    Format settings : CABAC/11 Ref Frames
    Format settings, CABAC : Yes
    Format settings, ReFrames : 11 frames
    Codec ID : V_MPEG4/ISO/AVC
    Duration : 1 h 19 min
    Bit rate : 5 263 kb/s
    Width : 1 280 pixels
    Height : 546 pixels
    Display aspect ratio : 2.35: 1
    Frame rate mode : Constant
    Frame rate : 23.976 (24000/1001) FPS
    Color space : YUV
    Chroma subsampling : 4: 2: 0
    Bit depth : 8 bits
    Scan type : Progressive
    Bits/(Pixel*Frame) : 0.314
    Stream size : 2.86 GiB (74%)
    Writing library : x264 core 158 r2984 3759fcb
    Encoding settings : cabac=1/ref=11/deblock=1: -3: -3/analyse=0x3: 0x133/me=umh/subme=11/psy=1/psy_rd=1.00: 0.00/mixed_ref=1/me_range=32/chroma_me=1/trellis=2/8x8dct=1/cqm=0/deadzone=21, 11/fast_pskip=0/chroma_qp_offset=-2/threads=12/lookahead_threads=3/sliced_threads=0/nr=0/decimate=0/interlaced=0/bluray_compat=0/constrained_intra=0/bframes=11/b_pyramid=2/b_adapt=2/b_bias=0/direct=3/weightb=1/open_gop=0/weightp=2/keyint=240/keyint_min=23/scenecut=40/intra_refresh=0/rc_lookahead=60/rc=2pass/mbtree=0/bitrate=5263/ratetol=1.0/qcomp=0.65/qpmin=0/qpmax=69/qpstep=4/cplxblur=20.0/qblur=0.5/vbv_maxrate=50000/vbv_bufsize=62500/nal_hrd=none/filler=0/ip_ratio=1.30/pb_ratio=1.30/aq=3: 0.80
    Language : English
    Default : Yes
    Forced : No
    Color range : Limited
    Color primaries : BT.709
    Transfer characteristics : BT.709
    Matrix coefficients : BT.709
    Audio #1
    ID : 2
    Format : AC-3
    Format/Info : Audio Coding 3
    Commercial name : Dolby Digital
    Codec ID : A_AC3
    Duration : 1 h 19 min
    Bit rate mode : Constant
    Bit rate : 192 kb/s
    Channel(s) : 2 channels
    Channel layout : L R
    Sampling rate : 48.0 kHz
    Frame rate : 31.250 FPS (1536 SPF)
    Bit depth : 16 bits
    Compression mode : Lossy
    Stream size : 110 MiB (3%)
    Title : Dub (Варус Видео)
    Language : Russian
    Service kind : Complete Main
    Default : Yes
    Forced : No
    Audio #2
    ID : 3
    Format : AC-3
    Format/Info : Audio Coding 3
    Commercial name : Dolby Digital
    Codec ID : A_AC3
    Duration : 1 h 19 min
    Bit rate mode : Constant
    Bit rate : 192 kb/s
    Channel(s) : 2 channels
    Channel layout : L R
    Sampling rate : 48.0 kHz
    Frame rate : 31.250 FPS (1536 SPF)
    Bit depth : 16 bits
    Compression mode : Lossy
    Stream size : 110 MiB (3%)
    Title : DVO (СТС)
    Language : Russian
    Service kind : Complete Main
    Default : No
    Forced : No
    Audio #3
    ID : 4
    Format : AC-3
    Format/Info : Audio Coding 3
    Commercial name : Dolby Digital
    Codec ID : A_AC3
    Duration : 1 h 19 min
    Bit rate mode : Constant
    Bit rate : 448 kb/s
    Channel(s) : 6 channels
    Channel layout : L R C LFE Ls Rs
    Sampling rate : 48.0 kHz
    Frame rate : 31.250 FPS (1536 SPF)
    Bit depth : 16 bits
    Compression mode : Lossy
    Stream size : 256 MiB (6%)
    Title : AVO (С.Кузнецов)
    Language : Russian
    Service kind : Complete Main
    Default : No
    Forced : No
    Audio #4
    ID : 5
    Format : AC-3
    Format/Info : Audio Coding 3
    Commercial name : Dolby Digital
    Codec ID : A_AC3
    Duration : 1 h 19 min
    Bit rate mode : Constant
    Bit rate : 384 kb/s
    Channel(s) : 6 channels
    Channel layout : L R C LFE Ls Rs
    Sampling rate : 48.0 kHz
    Frame rate : 31.250 FPS (1536 SPF)
    Bit depth : 16 bits
    Compression mode : Lossy
    Stream size : 219 MiB (6%)
    Title : AVO (Ю.Сербин)
    Language : Russian
    Service kind : Complete Main
    Default : No
    Forced : No
    Audio #5
    ID : 6
    Format : AC-3
    Format/Info : Audio Coding 3
    Commercial name : Dolby Digital
    Codec ID : A_AC3
    Duration : 1 h 19 min
    Bit rate mode : Constant
    Bit rate : 448 kb/s
    Channel(s) : 6 channels
    Channel layout : L R C LFE Ls Rs
    Sampling rate : 48.0 kHz
    Frame rate : 31.250 FPS (1536 SPF)
    Bit depth : 16 bits
    Compression mode : Lossy
    Stream size : 256 MiB (6%)
    Title : Original
    Language : English
    Service kind : Complete Main
    Default : No
    Forced : No
    Text #1
    ID : 7
    Format : UTF-8
    Codec ID : S_TEXT/UTF8
    Codec ID/Info : UTF-8 Plain Text
    Title : full
    Language : English
    Default : No
    Forced : No
    Text #2
    ID : 8
    Format : UTF-8
    Codec ID : S_TEXT/UTF8
    Codec ID/Info : UTF-8 Plain Text
    Title : SDH
    Language : English
    Default : No
    Forced : No
    Menu
    00: 00: 00.000 : en: Chapter 1
    00: 06: 04.573 : en: Chapter 2
    00: 12: 19.197 : en: Chapter 3
    00: 17: 40.101 : en: Chapter 4
    00: 23: 52.181 : en: Chapter 5
    00: 30: 00.799 : en: Chapter 6
    00: 37: 20.864 : en: Chapter 7
    00: 42: 52.320 : en: Chapter 8
    00: 48: 51.262 : en: Chapter 9
    00: 54: 29.558 : en: Chapter 10
    01: 02: 23.448 : en: Chapter 11
    01: 08: 40.867 : en: Chapter 12
    Скриншоты для ознакомления



    Все одноименные релизы в Клубе
    Время раздачи: с 13: 00 до 01: 00 МСК, выходные круглосуточно (до появления первых 3-5 скачавших)

    Онлайн видео Зловещая луна



    Зловещая луна / Bad Moon (1996) BDRip [H.264 / 720p] торрент скачать бесплатно
    Рейтинг →
     (голосов: 1, оценка 4/5, голосовать можно 1 раз )

    Другие торренты по теме:

  • Зловещая луна / Bad Moon (1996) BDRemux [H.264 / 1080p]
  • Зловещая луна / Bad Moon (1996) WEB-DL [H.264 / 720p-LQ]
  • Зловещая луна / Bad Moon (1996) BDRip [H.264 / 1080p-LQ]
  • Зловещая луна / Bad Moon (1996) BDRip [H.264]


    • Комментарии (0):

      Информация

      Информация

        Посетители, находящиеся в группе Гости, не могут оставлять комментарии в данной новости.

        ↓ Меню




        ↓ Опрос

        Вы добавили сайт в закладки?
        Да
        Нет


        Популярное