.
Авторизация | Регистрация
bitok.xyz
Торрент скачать бесплатно Фильмы торрент скачать Слабым здесь не место (2017) WEBRip торрент скачать бесплатно


    Слабым здесь не место (2017) WEBRip торрент скачать бесплатно

    Дата: 27-01-2020, 05:00 | .torrent скачали: 2

    Слабым здесь не место (2017) WEBRipПроизводство: Россия
    Жанр: Короткометражный, драма
    Режиссер: Лолита Наранович

    Актеры
    Маргарита Шилова, Анастасия Мытражик, Олеся Остапова, Ирина Рура

    Описание

    Воспитатель детского дома Вилена Леонидовна считает, что знает о воспитании детей всё. По её мнению, только строгие наказания способны сохранить хоть какую-то дисциплину. Однако практикантка Люба не согласна с её методами. Она уверена, что дети, да и сама Вилена Леонидовна, страдают от дефицита любви, и лишь поэтому склонны к проявлению жестокости…

    Релиз от: Алехаndr
    Продолжительность: 00: 24: 10
    Качество видео: WEBRip
    Субтитры: английские (хардсаб)
    Видео: Xvid, 720x388 (1.85: 1), ~1190 Kbps
    Аудио: AC3, 2 ch, 192 Kbps
    Общее
    Полное имя : D: Слабым здесь не место (2017).by.Алехаndr.avi
    Формат : AVI
    Формат/Информация : Audio Video Interleave
    Размер файла : 241 Мбайт
    Продолжительность : 24 м. 11 с.
    Общий поток : 1391 Кбит/сек
    Программа кодирования : Lavf58.29.100
    Видео
    Идентификатор : 0
    Формат : MPEG-4 Visual
    Профиль формата : Advanced Simple@L5
    Настройки формата : BVOP2
    Параметр BVOP формата : 2
    Параметр QPel формата : Нет
    Параметр GMC формата : Без точки перехода
    Параметр матрицы формата : Default (MPEG)
    Идентификатор кодека : XVID
    Идентификатор кодека/Подсказка : XviD
    Продолжительность : 24 м. 10 с.
    Битрейт : 1188 Кбит/сек
    Ширина : 720 пикселей
    Высота : 388 пикселей
    Соотношение сторон : 1, 85: 1
    Частота кадров : 25, 000 кадров/сек
    Цветовое пространство : YUV
    Субдискретизация насыщенности : 4: 2: 0
    Битовая глубина : 8 бит
    Тип развёртки : Прогрессивная
    Метод сжатия : С потерями
    Бит/(Пиксели*Кадры) : 0.170
    Размер потока : 206 Мбайт (85%)
    Библиотека кодирования : XviD 67
    Аудио
    Идентификатор : 1
    Формат : AC-3
    Формат/Информация : Audio Coding 3
    Коммерческое название : Dolby Digital
    Идентификатор кодека : 2000
    Продолжительность : 24 м. 11 с.
    Вид битрейта : Постоянный
    Битрейт : 192 Кбит/сек
    Каналы : 2 канала
    ChannelLayout : L R
    Частота : 48, 0 КГц
    Частота кадров : 31, 250 кадров/сек (1536 SPF)
    Битовая глубина : 16 бит
    Метод сжатия : С потерями
    Размер потока : 33, 2 Мбайт (14%)
    Выравнивание : Соединение по промежуткам
    Продолжительность промежутка : 32 мс. (0, 80 видеокадр)
    ServiceKind/String : Complete Main

    Скриншоты для ознакомления



    Все одноименные релизы в Клубе
    Время раздачи: 24/7 (круглосуточно) (до появления первых 3-5 скачавших)

    Слабым здесь не место (2017) WEBRip торрент скачать бесплатно
    Рейтинг →
     (голосов: 1, оценка 4/5, голосовать можно 1 раз )

    Другие торренты по теме:



      Комментарии (0):

      Информация

      Информация

        Посетители, находящиеся в группе Гости, не могут оставлять комментарии в данной новости.

        ↓ Меню




        ↓ Опрос

        Вы добавили сайт в закладки?
        Да
        Нет


        Популярное