.
Авторизация | Регистрация
bitok.xyz
Торрент скачать бесплатно Фильмы торрент скачать Маняшино озеро (2017) WEB-DLRip торрент скачать бесплатно


    Маняшино озеро (2017) WEB-DLRip торрент скачать бесплатно

    Дата: 27-01-2020, 05:00 | .torrent скачали: 0

    Маняшино озеро (2017) WEB-DLRipПроизводство: Россия/Кинокомпания МЕЧТА
    Жанр: Драма
    Режиссер: Андрей Гаврилов

    Актеры
    Владимир Сычев, Марина Федункив, Юлия Беретта, Иван Шаповалов, Яна Исакова, Савелий Непомнящий

    Описание

    Маленькая добрая девочка из сибирской глубинки Маняша очень рано потеряла маму и осталась с отцом Иваном. Пока несчастный вдовец целыми днями проводит на работе, Маняша ищет способ, как исполнить свою мечту — обрести материнскую любовь и заботу. И однажды в их дом приходит молодая медсестра Светлана.

    Возраст: 0+ (для любой зрительской аудитории)
    Продолжительность: 01: 29: 04
    Качество видео: WEB-DLRip
    Перевод: Не требуется (русский)
    Субтитры: Отсутствуют
    Видео: Xvid, 720x304, ~1031 kbps
    Аудио: MP3, 2 ch, 128 kbps
    Общее
    Полное имя : D: Manyashino.Ozero.2017.WEB-DLRip..avi
    Формат : AVI
    Формат/Информация : Audio Video Interleave
    Размер файла : 745 Мбайт
    Продолжительность : 1 ч. 29 м.
    Общий поток : 1169 Кбит/сек
    Программа кодирования : VirtualDubMod 1.5.10.3 | (build 2550/release)
    Библиотека кодирования : VirtualDubMod build 2550/release
    Видео
    Идентификатор : 0
    Формат : MPEG-4 Visual
    Профиль формата : Advanced Simple@L5
    Параметр BVOP формата : 1
    Параметр QPel формата : Нет
    Параметр GMC формата : Без точки перехода
    Параметр матрицы формата : Выборочная
    Идентификатор кодека : XVID
    Идентификатор кодека/Подсказка : XviD
    Продолжительность : 1 ч. 29 м.
    Битрейт : 1032 Кбит/сек
    Ширина : 720 пикселей
    Высота : 304 пикселя
    Соотношение сторон : 2, 35: 1
    Частота кадров : 24, 000 кадра/сек
    Цветовое пространство : YUV
    Субдискретизация насыщенности : 4: 2: 0
    Битовая глубина : 8 бит
    Тип развёртки : Прогрессивная
    Метод сжатия : С потерями
    Бит/(Пиксели*Кадры) : 0.196
    Размер потока : 657 Мбайт (88%)
    Библиотека кодирования : XviD 73
    Аудио
    Идентификатор : 1
    Формат : MPEG Audio
    Версия формата : Version 1
    Профиль формата : Layer 3
    Идентификатор кодека : 55
    Идентификатор кодека/Подсказка : MP3
    Продолжительность : 1 ч. 29 м.
    Вид битрейта : Постоянный
    Битрейт : 128 Кбит/сек
    Каналы : 2 канала
    Частота : 48, 0 КГц
    Метод сжатия : С потерями
    Размер потока : 81, 5 Мбайт (11%)
    Выравнивание : Соединение по промежуткам
    Продолжительность промежутка : 42 мс. (1, 00 видеокадр)
    Время предзагрузки промежутка : 504 мс.
    Библиотека кодирования : LAME3.99r
    Настройки программы : -m s -V 4 -q 2 -lowpass 17 -b 128

    Скриншоты для ознакомления



    Все одноименные релизы в Клубе
    Время раздачи: с 08.00 до 24.00 (до появления первых 3-5 скачавших)

    Онлайн видео Маняшино озеро (2017) WEB



    Маняшино озеро (2017) WEB-DLRip торрент скачать бесплатно
    Рейтинг →
     (голосов: 1, оценка 4/5, голосовать можно 1 раз )

    Другие торренты по теме:

  • Маняшино озеро (2017) WEB-DL [H.264 / 1080p-LQ]
  • Маняшино озеро (2017) WEB-DLRip


    • Комментарии (0):

      Информация

      Информация

        Посетители, находящиеся в группе Гости, не могут оставлять комментарии в данной новости.

        ↓ Меню




        ↓ Опрос

        Вы добавили сайт в закладки?
        Да
        Нет


        Популярное