.
Авторизация | Регистрация
bitok.xyz
Торрент скачать бесплатно Фильмы торрент скачать Завтрак с видом на Эльбрус (1993) DVDRip торрент скачать бесплатно


    Завтрак с видом на Эльбрус (1993) DVDRip торрент скачать бесплатно

    Дата: 27-01-2020, 05:00 | .torrent скачали: 0

    Завтрак с видом на Эльбрус (1993) DVDRipПроизводство: Россия/Ass Video, Останкино, Роскомкино, ТО Экран
    Жанр: Драма, Мелодрама
    Режиссер: Николай Малецкий

    Актеры
    Игорь Костолевский, Вера Сотникова, Вера Каншина, Игорь Шавлак, Альберт Филозов, Михаил Филиппов, Вениамин Смехов, М. Гамулин, Андрей Сухарь, Владимир Епископосян

    Описание

    Герой фильма журналист Павел Денисов тяжело переживает разрыв с любимой женщиной, Ларисой. Чтобы отвлечься, Павел уезжает в горы. Где встречает другую женщину Елену. Елена влюбляется в Павла и чувства ее чисты и высоки. Умом Павел понимает это, но сердце его принадлежит другой.

    Возраст: 16+ (зрителям, достигшим 16 лет)
    Продолжительность: 01: 12: 45
    Качество видео: DVDRip
    Видео: Xvid, 640x480, ~2234 Kbps
    Аудио: AC3, 6 ch, 448 Kbps
    Общее
    Полное имя : F: Zavtrak_s_vidom_na_elbrus.avi
    Формат : AVI
    Формат/Информация : Audio Video Interleave
    Размер файла : 1, 37 Гбайт
    Продолжительность : 1 ч. 12 м.
    Общий поток : 2689 Кбит/сек
    Программа кодирования : VirtualDubMod 1.5.4.1 (build 2178/release)
    Библиотека кодирования : VirtualDubMod build 2178/release
    Видео
    Идентификатор : 0
    Формат : MPEG-4 Visual
    Профиль формата : Advanced Simple@L5
    Параметр BVOP формата : 1
    Параметр QPel формата : Нет
    Параметр GMC формата : Без точки перехода
    Параметр матрицы формата : Выборочная
    Идентификатор кодека : XVID
    Идентификатор кодека/Подсказка : XviD
    Продолжительность : 1 ч. 12 м.
    Битрейт : 2234 Кбит/сек
    Ширина : 640 пикселей
    Высота : 480 пикселей
    Соотношение сторон : 4: 3
    Частота кадров : 25, 000 кадров/сек
    Цветовое пространство : YUV
    Субдискретизация насыщенности : 4: 2: 0
    Битовая глубина : 8 бит
    Тип развёртки : Прогрессивная
    Метод сжатия : С потерями
    Бит/(Пиксели*Кадры) : 0.291
    Размер потока : 1, 14 Гбайт (83%)
    Библиотека кодирования : XviD 1.2.0.dev47 (UTC 2006-11-01)
    Аудио
    Идентификатор : 1
    Формат : AC-3
    Формат/Информация : Audio Coding 3
    Расширение режима : CM (complete main)
    Параметр Endianness формата : Big
    Идентификатор кодека : 2000
    Продолжительность : 1 ч. 12 м.
    Вид битрейта : Постоянный
    Битрейт : 448 Кбит/сек
    Каналы : 6 каналов
    Расположение каналов : Front: L C R, Side: L R, LFE
    Частота : 48, 0 КГц
    Частота кадров : 31, 250 кадров/сек (1536 spf)
    Метод сжатия : С потерями
    Размер потока : 233 Мбайт (17%)
    Выравнивание : Разделение по промежуткам
    Продолжительность промежутка : 96 мс. (2, 40 видеокадра)
    Время предзагрузки промежутка : 96 мс.
    Язык : English

    Скриншоты для ознакомления



    Все одноименные релизы в Клубе
    Время раздачи: 24/7 (до появления первых 3-5 скачавших)

    Онлайн видео Маняшино озеро (2017) WEB



    Завтрак с видом на Эльбрус (1993) DVDRip торрент скачать бесплатно
    Рейтинг →
     (голосов: 1, оценка 5/5, голосовать можно 1 раз )

    Другие торренты по теме:

  • Клуб «Завтрак» / The Breakfast Club (1985) BDRemux [1080p] скачать через торрент бесплатно
  • Завтрак с Антоном Абрезовым (2014) WEB-DL [выпуски 1-60] скачать через торрент бесплатно
  • Завтрак на траве (1979) DVDRip [H.264] [2 серии из 2] скачать через торрент бесплатно
  • Клуб «Завтрак» / The Breakfast Club (1985) BDRip [H.264 / 1080p] скачать через торрент бесплатно
  • Филип Хук | Завтрак у Sothebys. Мир искусства от А до Я (2015) [FB2]
  • Завтрак у папы (2015) WEB-DLRip
  • Завтрак у папы (2015) WEB-DL [H.264 / 1080p-LQ]
  • Завтрак у папы (2015) WEB-DL [1080p] ATV


    • Комментарии (0):

      Информация

      Информация

        Посетители, находящиеся в группе Гости, не могут оставлять комментарии в данной новости.

        ↓ Меню




        ↓ Опрос

        Вы добавили сайт в закладки?
        Да
        Нет


        Популярное