.
Авторизация | Регистрация
bitok.xyz
Торрент скачать бесплатно Фильмы торрент скачать Маняшино озеро (2017) WEB-DLRip торрент скачать бесплатно


    Маняшино озеро (2017) WEB-DLRip торрент скачать бесплатно

    Дата: 27-01-2020, 05:00 | .torrent скачали: 0

    Маняшино озеро (2017) WEB-DLRipПроизводство: Россия/Кинокомпания МЕЧТА
    Жанр: Драма
    Режиссер: Андрей Гаврилов

    Актеры
    Владимир Сычев, Марина Федункив, Юлия Беретта, Иван Шаповалов, Яна Исакова, Савелий Непомнящий

    Описание

    Маленькая добрая девочка из сибирской глубинки Маняша очень рано потеряла маму и осталась с отцом Иваном. Пока несчастный вдовец целыми днями проводит на работе, Маняша ищет способ, как исполнить свою мечту — обрести материнскую любовь и заботу. И однажды в их дом приходит молодая медсестра Светлана.

    Релиз от: Алехаndr
    Продолжительность: 01: 29: 04
    Качество видео: WEB-DLRip
    Субтитры: Отсутствуют
    Видео: Xvid, 720x304 (2.35: 1), ~2100 Kbps
    Аудио: AC3, 6 ch, 224 Kbps
    Общее
    Полное имя : G: Maniashino.ozero.2017.by.Алехаndr.avi
    Формат : AVI
    Формат/Информация : Audio Video Interleave
    Размер файла : 1, 45 Гбайт
    Продолжительность : 1 ч. 29 м.
    Общий поток : 2339 Кбит/сек
    Видео
    Идентификатор : 0
    Формат : MPEG-4 Visual
    Профиль формата : Advanced Simple@L5
    Настройки формата : BVOP2
    Параметр BVOP формата : 2
    Параметр QPel формата : Нет
    Параметр GMC формата : Без точки перехода
    Параметр матрицы формата : Default (MPEG)
    Идентификатор кодека : XVID
    Идентификатор кодека/Подсказка : XviD
    Продолжительность : 1 ч. 29 м.
    Битрейт : 2103 Кбит/сек
    Ширина : 720 пикселей
    Высота : 304 пикселя
    Соотношение сторон : 2, 35: 1
    Частота кадров : 24, 000 кадра/сек
    Цветовое пространство : YUV
    Субдискретизация насыщенности : 4: 2: 0
    Битовая глубина : 8 бит
    Тип развёртки : Прогрессивная
    Метод сжатия : С потерями
    Бит/(Пиксели*Кадры) : 0.400
    Размер потока : 1, 31 Гбайт (90%)
    Библиотека кодирования : XviD 67
    Аудио
    Идентификатор : 1
    Формат : AC-3
    Формат/Информация : Audio Coding 3
    Коммерческое название : Dolby Digital
    Идентификатор кодека : 2000
    Продолжительность : 1 ч. 29 м.
    Вид битрейта : Постоянный
    Битрейт : 224 Кбит/сек
    Каналы : 6 каналов
    ChannelLayout : L R C LFE Ls Rs
    Частота : 48, 0 КГц
    Частота кадров : 31, 250 кадров/сек (1536 SPF)
    Метод сжатия : С потерями
    Размер потока : 143 Мбайт (10%)
    Выравнивание : Соединение по промежуткам
    Продолжительность промежутка : 32 мс. (0, 77 видеокадр)
    ServiceKind/String : Complete Main

    Скриншоты для ознакомления



    Все одноименные релизы в Клубе
    Время раздачи: 24/7 (круглосуточно) (до появления первых 3-5 скачавших)

    Онлайн видео Маняшино озеро (2017) WEB



    Маняшино озеро (2017) WEB-DLRip торрент скачать бесплатно
    Рейтинг →
     (голосов: 1, оценка 4/5, голосовать можно 1 раз )

    Другие торренты по теме:

  • Маняшино озеро (2017) WEB-DL [H.264 / 1080p-LQ]
  • Маняшино озеро (2017) WEB-DLRip


    • Комментарии (0):

      Информация

      Информация

        Посетители, находящиеся в группе Гости, не могут оставлять комментарии в данной новости.

        ↓ Меню




        ↓ Опрос

        Вы добавили сайт в закладки?
        Да
        Нет


        Популярное