.
Авторизация | Регистрация
bitok.xyz
Торрент скачать бесплатно Фильмы торрент скачать Водопад (1973) VHSRip торрент скачать бесплатно


    Водопад (1973) VHSRip торрент скачать бесплатно

    Дата: 27-01-2020, 05:00 | .torrent скачали: 0

    Водопад (1973) VHSRipПроизводство: СССР, Киргизфильм
    Жанр: Драма
    Режиссер: Юрий Борецкий

    Актеры
    Чоробек Думанаев, Ингрида Андриня, Майя Булгакова, Асанали Ашимов, Алмаз Кыргызбаев, Валерий Жданов, Джамал Сейдакматова, Советбек Джумадылов

    Описание

    На строительстве дороги, где Асан работает бульдозеристом, готовится мощный взрыв. Около Асана, который своим бульдозером перекрывает проезжую часть, останавливается машина геологической экспедиции. Молодой геолог Криста Яновна не верит Асану, что сейчас произойдёт взрыв, и бежит к взрывникам, чтобы уговорить их пропустить машину экспедиции. Асан догоняет Кристу, и спасает от гибели. Геологам приходится задержаться в ожидании, пока расчистят дорогу. Воспользовавшись передышкой, Асан и Криста, между которыми возникло чувство симпатии, ненадолго отлучаются. Они посещают село, где живёт Асан со своими братишками и сестрёнками, отдыхают около красивого водопада. После расчистки дороги Криста прощается с Асаном и уезжает. Возможно, они больше никогда не увидятся, но эта встреча надолго сохранится в их памяти..
    Релиз от: kolman67
    Продолжительность: 01: 13: 18
    Качество видео: VHSRip
    Субтитры: отсутствуют
    Видео: Xvid, 704x440, ~2660 Kbps
    Аудио: MP2, 2 ch, 128 Kbps
    Общее
    Полное имя : Водопад (1973).avi
    Формат : AVI
    Формат/Информация : Audio Video Interleave
    Размер файла : 1, 43 Гбайт
    Продолжительность : 1 ч. 13 м.
    Общий поток : 2797 Кбит/сек
    Программа кодирования : VirtualDubMod 1.5.10.3 |www.virtualdub-fr.org|| (build 2550/release)
    Библиотека кодирования : VirtualDubMod build 2550/release
    Видео
    Идентификатор : 0
    Формат : MPEG-4 Visual
    Профиль формата : Advanced Simple@L5
    Настройки формата : BVOP2
    Параметр BVOP формата : 2
    Параметр QPel формата : Нет
    Параметр GMC формата : Без точки перехода
    Параметр матрицы формата : Default (H.263)
    Идентификатор кодека : XVID
    Идентификатор кодека/Подсказка : XviD
    Продолжительность : 1 ч. 13 м.
    Битрейт : 2658 Кбит/сек
    Ширина : 704 пикселя
    Высота : 440 пикселей
    Соотношение сторон : 16: 10
    Частота кадров : 29, 970 (30000/1001) кадров/сек
    Цветовое пространство : YUV
    Субдискретизация насыщенности : 4: 2: 0
    Битовая глубина : 8 бит
    Тип развёртки : Прогрессивная
    Метод сжатия : С потерями
    Бит/(Пиксели*Кадры) : 0.286
    Размер потока : 1, 36 Гбайт (95%)
    Библиотека кодирования : XviD 1.2.1 (UTC 2008-12-04)
    Аудио
    Идентификатор : 1
    Формат : MPEG Audio
    Версия формата : Version 1
    Профиль формата : Layer 2
    Идентификатор кодека : 50
    Продолжительность : 1 ч. 13 м.
    Вид битрейта : Постоянный
    Битрейт : 128 Кбит/сек
    Каналы : 2 канала
    Частота : 44, 1 КГц
    Метод сжатия : С потерями
    Размер потока : 67, 1 Мбайт (5%)
    Выравнивание : Разделение по промежуткам
    Продолжительность промежутка : 33 мс. (1, 00 видеокадр)
    Время предзагрузки промежутка : 500 мс.


    Онлайн видео Маняшино озеро (2017) WEB



    Водопад (1973) VHSRip торрент скачать бесплатно
    Рейтинг →
     (голосов: 1, оценка 3/5, голосовать можно 1 раз )

    Другие торренты по теме:

  • Водопад Ангела / Seraphim Falls (2006) BDRip [H.264 / 720р-LQ]
  • Обои - Водопад (Big Pack 3) [JPG] скачать через торрент бесплатно
  • VA - Музыкальный водопад. Версия 5 (2016) [MP3|256 кб / с] <Pop, Dance>
  • BBC: Мир природы. Водопад Виктория - Гремящий дым / Natural World. Victoria Falls - The Smoke that Thunders (2009) HDTVRip [H.264 / 720p] (сезон 29 серия 2)
  • Водопад Денни Крик / Denny Creek Falls (2017) WEBRip [H.264 / 2160p-LQ] [4K]
  • Серебряный водопад / A Haunting at Silver Falls (2013) BDRip [H.264 / 1080p-LQ] [DVO]
  • Водопад Виктория / Victoria Falls (2017) WEBRip [VP9 / 2160p] [4K, HDR]
  • Серебряный водопад / A Haunting at Silver Falls (2013) BDRemux [H.264 / 1080p] [GER Transfer] [DVO]


    • Комментарии (0):

      Информация

      Информация

        Посетители, находящиеся в группе Гости, не могут оставлять комментарии в данной новости.

        ↓ Меню




        ↓ Опрос

        Вы добавили сайт в закладки?
        Да
        Нет


        Популярное