.
Авторизация | Регистрация
bitok.xyz
Торрент скачать бесплатно Фильмы торрент скачать Межсезонье / Hwanjeolgi (2016) HDRip [H.264] [DVO] торрент скачать бесплатно


    Межсезонье / Hwanjeolgi (2016) HDRip [H.264] [DVO] торрент скачать бесплатно

    Дата: 27-01-2020, 05:00 | .torrent скачали: 0

    Межсезонье / Hwanjeolgi (2016) HDRip [H.264] [DVO]Производство: Южная Корея/LiTTLE BiG PiCTURES, Myung Films
    Жанр: Драма
    Режиссер: Ли Дон-ын

    Актеры
    Пэ Джон-ок, Ли Вон-гын, Чи Юн-хо, Пак Вон-сан, Со Джон-ён, У Джи-хён, Ким Е-ын, Пак Хе-джин, Ким Джа-ён, Пэ Ён-гын

    Описание

    Ми-Кюн живёт одна с сыном-подростком Су-Хёном. Он с ней не очень церемонится, но сердце у парнишки доброе. Однажды Су-Хён приводит домой своего друга Ён-Чжуна, когда тот попадает в неприятности. Ён Чжун - полная противоположность её сына : он молчалив, спокоен и рассудителен. Эти двое становятся друзьями не разлей вода. Когда парни поехали в путешествие, с ними происходит несчастный случай. Су-Хён впадает в кому, в то время как Ён-Чжун возвращается без единой царапины. Теперь мать вынуждена заботиться о сыне-инвалиде. Ён-Чжун настойчиво пытается помочь ей и парализованному другу, проводя много времени у постели больного. Откуда такая трогательная забота, чего мать не знает о своём сыне ?

    Рейтинг MPAA: PG-13 (детям до 13 лет просмотр нежелателен)
    Продолжительность: 01: 41: 37
    Качество видео: HDRip
    Перевод: Двуголосый любительский (Храм Дорам)
    Субтитры: Русские
    Видео: AVC/H.264, 752x320, ~800 Kbps
    Аудио 1: AAC, 2 ch, 157 Kbps - Русский (DVO - Храм Дорам)
    Аудио 2: AAC, 2 ch, 160 Kbps - Корейский (отдельным файлом)
    Общее
    Уникальный идентификатор : 248841724817407775712845276684050328775 (0xBB352C44BD4F500A1F9C525B4D3D6CC7)
    Полное имя : C: UsersDesktopКИНОМежсезон любимого сериалаье (2016, ЮКорея, драма, 815Мб, МКВ)Межсезон любимого сериалаьеМежсезон любимого сериалаье.mkv
    Формат : Matroska
    Версия формата : Version 4/Version 2
    Размер файла : 698 Мбайт
    Продолжительность : 1 ч. 41 м.
    Общий поток : 960 Кбит/сек
    Дата кодирования : UTC 2020-01-13 19: 00: 55
    Программа кодирования : mkvmerge v24.0.0 (\'Beyond The Pale\') 32-bit
    Библиотека кодирования : libebml v1.3.6 + libmatroska v1.4.9
    Видео
    Идентификатор : 1
    Формат : AVC
    Формат/Информация : Advanced Video Codec
    Профиль формата : High@L3
    Настройки формата : CABAC/7 Ref Frames
    Параметр CABAC формата : Да
    Параметр RefFrames формата : 7 кадров
    Идентификатор кодека : V_MPEG4/ISO/AVC
    Продолжительность : 1 ч. 41 м.
    Битрейт : 800 Кбит/сек
    Ширина : 752 пикселя
    Высота : 320 пикселей
    Соотношение сторон : 2, 35: 1
    Режим частоты кадров : Постоянный
    Частота кадров : 29, 970 (30000/1001) кадров/сек
    Цветовое пространство : YUV
    Субдискретизация насыщенности : 4: 2: 0
    Битовая глубина : 8 бит
    Тип развёртки : Прогрессивная
    Бит/(Пиксели*Кадры) : 0.111
    Размер потока : 582 Мбайт (83%)
    Библиотека кодирования : x264 core 155 r2901 7d0ff22
    Настройки программы : cabac=1/ref=7/deblock=1: 0: 0/analyse=0x3: 0x113/me=umh/subme=9/psy=1/psy_rd=1.00: 0.00/mixed_ref=1/me_range=24/chroma_me=1/trellis=1/8x8dct=1/cqm=0/deadzone=21, 11/fast_pskip=1/chroma_qp_offset=-2/threads=10/lookahead_threads=1/sliced_threads=0/nr=0/decimate=1/interlaced=0/bluray_compat=0/constrained_intra=0/bframes=7/b_pyramid=2/b_adapt=1/b_bias=0/direct=1/weightb=1/open_gop=0/weightp=2/keyint=300/keyint_min=29/scenecut=40/intra_refresh=0/rc_lookahead=40/rc=2pass/mbtree=1/bitrate=800/ratetol=1.0/qcomp=0.60/qpmin=0/qpmax=69/qpstep=4/cplxblur=20.0/qblur=0.5/ip_ratio=1.40/aq=1: 1.00
    Default : Да
    Forced : Нет
    Аудио
    Идентификатор : 2
    Формат : AAC
    Формат/Информация : Advanced Audio Codec
    Профиль формата : LC
    Идентификатор кодека : A_AAC-2
    Продолжительность : 1 ч. 41 м.
    Битрейт : 157 Кбит/сек
    Каналы : 2 канала
    Расположение каналов : Front: L R
    Частота : 48, 0 КГц
    Частота кадров : 46, 875 кадров/сек (1024 SPF)
    Метод сжатия : С потерями
    Размер потока : 114 Мбайт (16%)
    Заголовок : Храм Дорам
    Язык : Russian
    Default : Да
    Forced : Нет
    Текст
    Идентификатор : 3
    Формат : UTF-8
    Идентификатор кодека : S_TEXT/UTF8
    Идентификатор кодека/Информация : UTF-8 Plain Text
    Продолжительность : 1 ч. 34 м.
    Битрейт : 71 бит/сек
    ElementCount : 997
    Размер потока : 49, 2 Кбайт (0%)
    Язык : Russian
    Default : Нет
    Forced : Нет
    Общее
    Полное имя : C: UsersDesktopКИНОМежсезон любимого сериалаье (2016, ЮКорея, драма, 815Мб, МКВ)Межсезон любимого сериалаьеМежсезон любимого сериалаье (Корейский).aac
    Формат : ADTS
    Формат/Информация : Audio Data Transport Stream
    Размер файла : 118 Мбайт
    Аудио
    Формат : AAC
    Формат/Информация : Advanced Audio Codec
    Версия формата : Version 4
    Профиль формата : LC
    Битрейт : 160 Кбит/сек
    Каналы : 2 канала
    Расположение каналов : Front: L R
    Частота : 44, 1 КГц
    Частота кадров : 43, 066 кадра/сек (1024 SPF)
    Метод сжатия : С потерями
    Размер потока : 118 Мбайт (100%)
    Язык : Korean

    Скриншоты для ознакомления



    Все одноименные релизы в Клубе
    Время раздачи: большая часть суток (до появления первых 3-5 скачавших)

    Онлайн видео Межсезон любимого сериалаье



    Межсезонье / Hwanjeolgi (2016) HDRip [H.264] [DVO] торрент скачать бесплатно
    Рейтинг →
     (голосов: 1, оценка 3/5, голосовать можно 1 раз )

    Другие торренты по теме:



      Комментарии (0):

      Информация

      Информация

        Посетители, находящиеся в группе Гости, не могут оставлять комментарии в данной новости.

        ↓ Меню




        ↓ Опрос

        Вы добавили сайт в закладки?
        Да
        Нет


        Популярное