.
Авторизация | Регистрация
bitok.xyz
Торрент скачать бесплатно Фильмы торрент скачать Меняющие реальность / The Adjustment Bureau (2011) BDRip [H.265 / 1080p-LQ] [10-bit] [PR] торрент скачать бесплатно

    Меняющие реальность / The Adjustment Bureau (2011) BDRip [H.265 / 1080p-LQ] [10-bit] [PR] торрент скачать бесплатно

    Дата: 27-01-2020, 05:00 | .torrent скачали: 0

    Меняющие реальность / The Adjustment Bureau (2011) BDRip [H.265 / 1080p-LQ] [10-bit] [PR]Производство: США/Universal Pictures, Media Rights Capital (MRC), Gambit Pictures
    Жанр: фантастика, триллер, мелодрама
    Режиссер: Джордж Нолфи

    Актеры
    Мэтт Дэймон, Эмили Блант, Энтони Маки, Джон Слэттери, Теренс Стэмп, Майкл Келли, Энтони Руйвивар, Дэвид Бишинс, Джонни Чикко, Брайан Хейли

    Описание
    Волею случая конгрессмен Дэвид Норрис узнает, что мир движется по заранее написанному плану, за исполнением которого следят работающие в неком Бюро Корректировки люди в шляпах, обладающие сверхъестественными способностями. Как назло, план не предусматривает дальнейших пересечений с балериной Элизой, в которую политик влюблен. Дэвид заручается поддержкой одного из агентов Бюро и начинает неравную борьбу с остальными, отстаивая свободу выбора и личное счастье…

    Возраст: 12+ (зрителям, достигшим 12 лет)
    Рейтинг MPAA: PG-13 (детям до 13 лет просмотр нежелателен)
    Релиз от: DSIO (HEVC-CLUB)
    Продолжительность: 01: 45: 50
    Качество видео: BDRip
    Перевод: Дублированный, авторский
    Субтитры: Русские (форсированные, полные), английские (полные, SDH)
    Видео: HEVC/H.265, 1920x1040, ~4221 Kbps
    Аудио 1: AC3, 6 ch, 448 Kbps - Русский, дублированный
    Аудио 2: AC3, 6 ch, 448 Kbps - Русский, AVO (Гаврилов)
    Аудио 3: AC3, 6 ch, 448 Kbps - Русский, AVO (Сербин)
    Аудио 4: AC3, 6 ch, 448 Kbps - Английский
    Общее
    Уникальный идентификатор : 130966602764643870813165968475839792588 (0x6287400CF85F2A328FFD9FC67DAC05CC)
    Полное имя : R: Меняющие реальность (2011).mkv
    Формат : Matroska
    Версия формата : Version 4/Version 2
    Размер файла : 4, 45 Гбайт
    Продолжительность : 1 ч. 45 м.
    Общий поток : 6016 Кбит/сек
    Название фильма : Меняющие реальность/The Adjustment Bureau (2011)
    Дата кодирования : UTC 2020-01-24 10: 56: 25
    Программа кодирования : mkvmerge v42.0.0 (\'Overtime\') 64-bit
    Библиотека кодирования : libebml v1.3.10 + libmatroska v1.5.2
    Обложка : Yes
    Attachments : Cover.jpg
    Видео
    Идентификатор : 1
    Формат : HEVC
    Формат/Информация : High Efficiency Video Coding
    Профиль формата : Main10@L5.1@High
    Идентификатор кодека : V_MPEGH/ISO/HEVC
    Продолжительность : 1 ч. 45 м.
    Битрейт : 4221 Кбит/сек
    Ширина : 1920 пикселей
    Высота : 1040 пикселей
    Соотношение сторон : 1, 85: 1
    Режим частоты кадров : Постоянный
    Частота кадров : 23, 976 (24000/1001) кадра/сек
    Цветовое пространство : YUV
    Субдискретизация насыщенности : 4: 2: 0
    Битовая глубина : 10 бит
    Бит/(Пиксели*Кадры) : 0.088
    Размер потока : 3, 12 Гбайт (70%)
    Заголовок : The Adjustment Bureau
    Библиотека кодирования : x265 2.8+23-656b5b442f0b: WindowsGCC 7.3.064 bit 10bit
    Настройки программы : cpuid=1176575/frame-threads=4/numa-pools=16/wpp/no-pmode/no-pme/no-psnr/no-ssim/log-level=2/input-csp=1/input-res=1920x1040/interlace=0/total-frames=0/level-idc=51/high-tier=1/uhd-bd=0/ref=5/no-allow-non-conformance/no-repeat-t_heads/annexb/no-aud/no-hrd/info/hash=0/no-temporal-layers/open-gop/min-keyint=23/keyint=250/gop-lookahead=0/bframes=8/b-adapt=2/no-b-pyramid/bframe-bias=0/rc-lookahead=40/lookahead-slices=4/scenecut=40/radl=0/no-intra-refresh/ctu=64/min-cu-size=8/no-rect/no-amp/max-tu-size=32/tu-inter-depth=2/tu-intra-depth=2/limit-tu=4/rdoq-level=2/dynamic-rd=0.00/no-ssim-rd/signhide/no-tskip/nr-intra=0/nr-inter=0/no-constrained-intra/strong-intra-smoothing/max-merge=3/limit-refs=2/limit-modes/me=3/subme=7/merange=64/temporal-mvp/weightp/weightb/no-analyze-src-pics/deblock=-3: -3/no-sao/no-sao-non-deblock/rd=6/no-early-skip/rskip/no-fast-intra/no-tskip-fast/no-cu-lossless/b-intra/no-splitrd-skip/rdpenalty=0/psy-rd=0.00/psy-rdoq=1.00/no-rd-refine/no-lossless/cbqpoffs=0/crqpoffs=0/rc=crf/crf=18.0/qcomp=0.60/qpstep=4/stats-write=0/stats-read=0/vbv-maxrate=160000/vbv-bufsize=160000/vbv-init=0.9/crf-max=0.0/crf-min=0.0/ipratio=1.40/pbratio=1.30/aq-mode=1/aq-strength=0.70/cutree/zone-count=0/no-strict-cbr/qg-size=32/no-rc-grain/qpmax=69/qpmin=0/no-const-vbv/sar=0/overscan=0/videoformat=5/range=0/colorprim=1/transfer=1/colormatrix=1/chromaloc=0/display-window=0/max-cll=0, 0/min-luma=0/max-luma=1023/log2-max-poc-lsb=8/vui-timing-info/vui-hrd-info/slices=1/no-opt-qp-pps/no-opt-ref-list-length-pps/no-multi-pass-opt-rps/scenecut-bias=0.05/no-opt-cu-delta-qp/no-aq-motion/no-hdr/no-hdr-opt/no-dhdr10-opt/no-idr-recovery-sei/analysis-reuse-level=5/scale-factor=0/refine-intra=0/refine-inter=0/refine-mv=0/no-limit-sao/ctu-info=0/no-lowpass-dct/refine-mv-type=0/copy-pic=1/max-ausize-factor=1.0/no-dynamic-refine/no-single-sei
    Язык : English
    Default : Да
    Forced : Да
    Цветовой диапазон : Limited
    Основные цвета : BT.709
    Характеристики трансфера : BT.709
    Коэффициенты матрицы : BT.709
    Аудио #1
    Идентификатор : 2
    Формат : AC-3
    Формат/Информация : Audio Coding 3
    Идентификатор кодека : A_AC3
    Продолжительность : 1 ч. 45 м.
    Вид битрейта : Постоянный
    Битрейт : 448 Кбит/сек
    Каналы : 6 каналов
    Расположение каналов : Front: L C R, Side: L R, LFE
    Частота : 48, 0 КГц
    Частота кадров : 31, 250 кадров/сек (1536 SPF)
    Битовая глубина : 16 бит
    Метод сжатия : С потерями
    Размер потока : 339 Мбайт (7%)
    Заголовок : Дубляж
    Язык : Russian
    ServiceKind/String : Complete Main
    Default : Да
    Forced : Нет
    Аудио #2
    Идентификатор : 3
    Формат : AC-3
    Формат/Информация : Audio Coding 3
    Идентификатор кодека : A_AC3
    Продолжительность : 1 ч. 45 м.
    Вид битрейта : Постоянный
    Битрейт : 448 Кбит/сек
    Каналы : 6 каналов
    Расположение каналов : Front: L C R, Side: L R, LFE
    Частота : 48, 0 КГц
    Частота кадров : 31, 250 кадров/сек (1536 SPF)
    Битовая глубина : 16 бит
    Метод сжатия : С потерями
    Размер потока : 339 Мбайт (7%)
    Заголовок : AVO (А.Гаврилов)
    Язык : Russian
    ServiceKind/String : Complete Main
    Default : Нет
    Forced : Нет
    Аудио #3
    Идентификатор : 4
    Формат : AC-3
    Формат/Информация : Audio Coding 3
    Идентификатор кодека : A_AC3
    Продолжительность : 1 ч. 45 м.
    Вид битрейта : Постоянный
    Битрейт : 448 Кбит/сек
    Каналы : 6 каналов
    Расположение каналов : Front: L C R, Side: L R, LFE
    Частота : 48, 0 КГц
    Частота кадров : 31, 250 кадров/сек (1536 SPF)
    Битовая глубина : 16 бит
    Метод сжатия : С потерями
    Размер потока : 339 Мбайт (7%)
    Заголовок : AVO (Ю.Сербин)
    Язык : Russian
    ServiceKind/String : Complete Main
    Default : Нет
    Forced : Нет
    Аудио #4
    Идентификатор : 5
    Формат : AC-3
    Формат/Информация : Audio Coding 3
    Идентификатор кодека : A_AC3
    Продолжительность : 1 ч. 45 м.
    Вид битрейта : Постоянный
    Битрейт : 448 Кбит/сек
    Каналы : 6 каналов
    Расположение каналов : Front: L C R, Side: L R, LFE
    Частота : 48, 0 КГц
    Частота кадров : 31, 250 кадров/сек (1536 SPF)
    Битовая глубина : 16 бит
    Метод сжатия : С потерями
    Размер потока : 339 Мбайт (7%)
    Заголовок : Original
    Язык : English
    ServiceKind/String : Complete Main
    Default : Нет
    Forced : Нет
    Текст #1
    Идентификатор : 6
    Формат : UTF-8
    Идентификатор кодека : S_TEXT/UTF8
    Идентификатор кодека/Информация : UTF-8 Plain Text
    Продолжительность : 1 ч. 27 м.
    Битрейт : 2 бит/сек
    ElementCount : 24
    Размер потока : 1, 31 Кбайт (0%)
    Заголовок : Forced
    Язык : Russian
    Default : Да
    Forced : Да
    Текст #2
    Идентификатор : 7
    Формат : UTF-8
    Идентификатор кодека : S_TEXT/UTF8
    Идентификатор кодека/Информация : UTF-8 Plain Text
    Продолжительность : 1 ч. 38 м.
    Битрейт : 101 бит/сек
    ElementCount : 1249
    Размер потока : 73, 4 Кбайт (0%)
    Заголовок : Full
    Язык : Russian
    Default : Нет
    Forced : Нет
    Текст #3
    Идентификатор : 8
    Формат : UTF-8
    Идентификатор кодека : S_TEXT/UTF8
    Идентификатор кодека/Информация : UTF-8 Plain Text
    Продолжительность : 1 ч. 37 м.
    Битрейт : 70 бит/сек
    ElementCount : 1550
    Размер потока : 50, 4 Кбайт (0%)
    Заголовок : Full
    Язык : English
    Default : Нет
    Forced : Нет
    Текст #4
    Идентификатор : 9
    Формат : UTF-8
    Идентификатор кодека : S_TEXT/UTF8
    Идентификатор кодека/Информация : UTF-8 Plain Text
    Продолжительность : 1 ч. 38 м.
    Битрейт : 72 бит/сек
    ElementCount : 1621
    Размер потока : 52, 4 Кбайт (0%)
    Заголовок : SDH
    Язык : English
    Default : Нет
    Forced : Нет
    Меню
    00: 00: 00.000 : en: Chapter 1
    00: 06: 37.772 : en: Chapter 2
    00: 14: 17.481 : en: Chapter 3
    00: 20: 58.215 : en: Chapter 4
    00: 28: 35.547 : en: Chapter 5
    00: 31: 11.494 : en: Chapter 6
    00: 35: 22.245 : en: Chapter 7
    00: 38: 58.836 : en: Chapter 8
    00: 43: 07.001 : en: Chapter 9
    00: 51: 35.050 : en: Chapter 10
    00: 58: 33.009 : en: Chapter 11
    01: 02: 14.981 : en: Chapter 12
    01: 07: 32.089 : en: Chapter 13
    01: 12: 00.649 : en: Chapter 14
    01: 14: 13.490 : en: Chapter 15
    01: 19: 47.574 : en: Chapter 16
    01: 24: 11.546 : en: Chapter 17
    01: 30: 00.603 : en: Chapter 18
    01: 35: 53.748 : en: Chapter 19
    01: 38: 54.470 : en: Chapter 20


    Онлайн видео Меняющие реальность



    Меняющие реальность / The Adjustment Bureau (2011) BDRip [H.265 / 1080p-LQ] [10-bit] [PR] торрент скачать бесплатно
    Рейтинг →
     (голосов: 1, оценка 3/5, голосовать можно 1 раз )

    Другие торренты по теме:

  • Меняющие реальность / The Adjustment Bureau (2011) HDRip
  • Меняющие реальность / The Adjustment Bureau (2011) HDRip [AVO]
  • Меняющие реальность / The Adjustment Bureau (2011) BDRemux [1080p] скачать через торрент бесплатно
  • Меняющие реальность / The Adjustment Bureau (2011) BDRip [AVO] скачать через торрент бесплатно
  • Меняющие реальность / The Adjustment Bureau (2011) BDRip [H.264 / 720p]
  • Меняющие реальность / The Adjustment Bureau (2011) BDRip [H.264 / 1080p] [PR]
  • Меняющие реальность / The Adjustment Bureau (2011) BDRip [H.264 / 720p]


    • Комментарии (0):

      Информация

      Информация

        Посетители, находящиеся в группе Гости, не могут оставлять комментарии в данной новости.

        ↓ Меню




        ↓ Опрос

        Вы добавили сайт в закладки?
        Да
        Нет


        Популярное