.
Авторизация | Регистрация
bitok.xyz
Торрент скачать бесплатно Фильмы торрент скачать Пила: Игра на выживание / Saw (2004) BDRip [Directors Cut] торрент скачать бесплатно


    Пила: Игра на выживание / Saw (2004) BDRip [Directors Cut] торрент скачать бесплатно

    Дата: 27-01-2020, 05:00 | .torrent скачали: 0

    Пила: Игра на выживание / Saw (2004) BDRip [Directors Cut]Производство: США/Evolution Entertainment, Saw Productions Inc., Twisted Pictures
    Жанр: Ужасы, Триллер, Детектив
    Режиссер: Джеймс Ван
    Продюсер: Марк Бёрг, Грегг Хоффман, Орен Каулз

    Актеры
    Ли Уоннелл, Кэри Элвис, Дэнни Гловер, Моника Поттер, Тобин Белл, Дина Мейер, Кен Люн, Майкл Эмерсон, Шоуни Смит, Бенито Мартинес

    Описание

    Двое незнакомцев просыпаются в странном подвальном помещении. В центре помещения — труп мужчины с простреленной головой и оружием в ослабевшей руке. Они же прикованы к стенам цепями за щиколотки. Оба не знают, как там оказались.
    Путём нехитрых предположений и спрятанных вокруг них ответов, как частей какого-то пазла, они узнают, по крайней мере, зачем они здесь и что именно от них ждёт их Похититель. Голос с найденной плёнки бесстрастно вещает: Если ты хочешь спасти свою жену и детей, убей другого. Убить другого можно, только дотянувшись до оружия.
    Дотянуться до оружия нельзя иначе, как избавившись от цепи. Избавиться от цепи нельзя иначе, кроме как отпилив ногу. Времени — мало. Но достаточно, чтобы реконструировать цепочку странных событий, которые привели каждого из них туда, где они сейчас оказались…

    Возраст: 18+ (зрителям, достигшим 18 лет. запрещено для детей)
    Рейтинг MPAA: R (лицам до 17 лет обязательно присутствие взрослого)
    Продолжительность: 01: 42: 46
    Качество видео: BDRip
    Перевод: Дублированный
    Субтитры: Отсутствуют
    Видео: Xvid, 688x384, ~874 kbps
    Аудио: MP3, 2 ch, 128 kbps - Русский дубляжОбщее
    Полное имя : D: Pila_Igra_na_vyzhivanie_2004_BDRip.740.mb.avi
    Формат : AVI
    Формат/Информация : Audio Video Interleave
    Размер файла : 744 Мбайт
    Продолжительность : 1 ч. 42 м.
    Общий поток : 1012 Кбит/сек
    Программа кодирования : VirtualDubMod 1.5.10.3 | (build 2550/release)
    Библиотека кодирования : VirtualDubMod build 2550/release
    Видео
    Идентификатор : 0
    Формат : MPEG-4 Visual
    Профиль формата : Advanced Simple@L5
    Параметр BVOP формата : 1
    Параметр QPel формата : Нет
    Параметр GMC формата : Без точки перехода
    Параметр матрицы формата : Выборочная
    Идентификатор кодека : XVID
    Идентификатор кодека/Подсказка : XviD
    Продолжительность : 1 ч. 42 м.
    Битрейт : 875 Кбит/сек
    Ширина : 688 пикселей
    Высота : 384 пикселя
    Соотношение сторон : 16: 9
    Частота кадров : 23, 976 кадра/сек
    Цветовое пространство : YUV
    Субдискретизация насыщенности : 4: 2: 0
    Битовая глубина : 8 бит
    Тип развёртки : Прогрессивная
    Метод сжатия : С потерями
    Бит/(Пиксели*Кадры) : 0.138
    Размер потока : 643 Мбайт (86%)
    Библиотека кодирования : XviD 73
    Аудио
    Идентификатор : 1
    Формат : MPEG Audio
    Версия формата : Version 1
    Профиль формата : Layer 3
    Идентификатор кодека : 55
    Идентификатор кодека/Подсказка : MP3
    Продолжительность : 1 ч. 42 м.
    Вид битрейта : Постоянный
    Битрейт : 128 Кбит/сек
    Каналы : 2 канала
    Частота : 48, 0 КГц
    Метод сжатия : С потерями
    Размер потока : 94, 1 Мбайт (13%)
    Выравнивание : Соединение по промежуткам
    Продолжительность промежутка : 42 мс. (1, 00 видеокадр)
    Время предзагрузки промежутка : 504 мс.
    Библиотека кодирования : LAME3.99r
    Настройки программы : -m s -V 4 -q 2 -lowpass 17 -b 128

    Скриншоты для ознакомления



    Все одноименные релизы в Клубе
    Время раздачи: с 08.00 до 24.00 (до появления первых 3-5 скачавших)

    Онлайн видео Пила: Игра на выживание



    Пила: Игра на выживание / Saw (2004) BDRip [Directors Cut] торрент скачать бесплатно
    Рейтинг →
     (голосов: 1, оценка 3/5, голосовать можно 1 раз )

    Другие торренты по теме:

  • Пила: Игра на выживание / Saw (2004) BDRip [H.264] [Directors Cut] скачать через торрент бесплатно
  • Пила: Игра на выживание / Saw (2004) BDRip [H.264 / 720p] [Directors Cut]
  • Пила: Игра на выживание / Saw (2004) BDRip [H.265 / 1080p] [10-bit] [Directors Cut]


    • Комментарии (0):

      Информация

      Информация

        Посетители, находящиеся в группе Гости, не могут оставлять комментарии в данной новости.

        ↓ Меню




        ↓ Опрос

        Вы добавили сайт в закладки?
        Да
        Нет


        Популярное