.
Авторизация | Регистрация
bitok.xyz
Торрент скачать бесплатно Фильмы торрент скачать Храбрые телохранители / Tian xia di yi biao ju / The Bravest Escort Group (2018) WEB-DLRip [VO] торрент скачать бесплатно


    Храбрые телохранители / Tian xia di yi biao ju / The Bravest Escort Group (2018) WEB-DLRip [VO] торрент скачать бесплатно

    Дата: 27-01-2020, 05:00 | .torrent скачали: 1

    Храбрые телохранители / Tian xia di yi biao ju / The Bravest Escort Group (2018) WEB-DLRip [VO]Производство: Китай, Beijing Sheng Shi Hua Ying Culture Communication Co., Ltd
    Жанр: Боевик, исторический
    Режиссер: Тао Мэнси

    Актеры
    Луис Фань, Чэ Юнли, Син Юй, Рэй Луй, Люн Ка-Янь, Кен Ло, Ши Нань, Чэнь Чжихуэй, Си Хун-Бо

    Описание

    Потерпев поражение от армии Цин, министр и генерал династии Мин решают переправить в безопасное место принцессу и карту к богатствам. Они проводят испытание среди эскортов и выбирают самый лучший. Храбрым воинам предстоит проделать опасный путь. И лишь немногие из них вернутся домой живыми...

    Релиз от: vitolinform
    Продолжительность: 01: 30: 04
    Качество видео: WEB-DLRip
    Перевод: Одноголосый любительский (Виктор Береговых)
    Субтитры: Английские, китайские (hardsub (неотключаемые), русские (softsub (SRT)
    Видео: Xvid, 704x304, ~1743 kbps
    Аудио 1: AC3, 2 ch, 224 Кbps | Русский (VO Виктор Береговых)
    Аудио 2: AC3, 2 ch, 192 Кbps | Китайский
    Samiie.Hrabriie.Telohraniteli.2018.WEB-DLRipSamiie.Hrabriie.Telohraniteli.2018.WEB-DLRip.avi
    Формат : AVI
    Формат/Информация : Audio Video Interleave
    Размер файла : 1, 37 Гбайт
    Продолжительность : 1 ч. 30 м.
    Общий поток : 2173 Кбит/сек
    Название фильма : Самые храбрые телохранители/Tian xia di yi biao ju/The Bravest Escort Group (2018) WEB-DLRip
    Режиссёр : Тао Мэнси/Mengxi Tao
    Жанр : Боевик, исторический
    Программа кодирования : VirtualDubMod 1.5.10.2 (build 2542/release)
    Формат оригинала/Имя : Художественный фильм
    Авторское право : Китай, Beijing Sheng Shi Hua Ying Culture Communication Co., Ltd
    Примечание : Rip by vitolinform
    Видео
    Идентификатор : 0
    Формат : MPEG-4 Visual
    Профиль формата : Advanced Simple@L5
    Настройки формата : BVOP2
    Параметр BVOP формата : 2
    Параметр QPel формата : Нет
    Параметр GMC формата : Без точки перехода
    Параметр матрицы формата : Default (MPEG)
    Идентификатор кодека : XVID
    Идентификатор кодека/Подсказка : XviD
    Продолжительность : 1 ч. 30 м.
    Битрейт : 1743 Кбит/сек
    Ширина : 720 пикселей
    Высота : 304 пикселя
    Соотношение сторон : 2, 35: 1
    Частота кадров : 24, 000 кадра/сек
    Цветовое пространство : YUV
    Субдискретизация насыщенности : 4: 2: 0
    Битовая глубина : 8 бит
    Тип развёртки : Прогрессивная
    Метод сжатия : С потерями
    Бит/(Пиксели*Кадры) : 0.332
    Размер потока : 1, 10 Гбайт (80%)
    Библиотека кодирования : XviD 67
    Аудио #1
    Идентификатор : 1
    Формат : AC-3
    Формат/Информация : Audio Coding 3
    Коммерческое название : Dolby Digital
    Идентификатор кодека : 2000
    Продолжительность : 1 ч. 30 м.
    Вид битрейта : Постоянный
    Битрейт : 224 Кбит/сек
    Каналы : 2 канала
    ChannelLayout : L R
    Частота : 48, 0 КГц
    Частота кадров : 31, 250 кадров/сек (1536 SPF)
    Битовая глубина : 16 бит
    Метод сжатия : С потерями
    Размер потока : 144 Мбайт (10%)
    Выравнивание : Разделение по промежуткам
    Продолжительность промежутка : 42 мс. (1, 00 видеокадр)
    Время предзагрузки промежутка : 500 мс.
    Заголовок : Russian (VO Виктор Береговых)
    ServiceKind/String : Complete Main
    Аудио #2
    Идентификатор : 2
    Формат : AC-3
    Формат/Информация : Audio Coding 3
    Коммерческое название : Dolby Digital
    Идентификатор кодека : 2000
    Продолжительность : 1 ч. 30 м.
    Вид битрейта : Постоянный
    Битрейт : 192 Кбит/сек
    Каналы : 2 канала
    ChannelLayout : L R
    Частота : 48, 0 КГц
    Частота кадров : 31, 250 кадров/сек (1536 SPF)
    Битовая глубина : 16 бит
    Метод сжатия : С потерями
    Размер потока : 124 Мбайт (9%)
    Выравнивание : Разделение по промежуткам
    Продолжительность промежутка : 42 мс. (1, 00 видеокадр)
    Время предзагрузки промежутка : 500 мс.
    Заголовок : Chinese
    ServiceKind/String : Complete Main

    Скриншоты для ознакомления



    Все одноименные релизы в Клубе
    Время раздачи: 24/7 (мультитрекерная раздача) (до появления первых 3-5 скачавших)

    Онлайн видео Храбрые телохранители



    Храбрые телохранители / Tian xia di yi biao ju / The Bravest Escort Group (2018) WEB-DLRip [VO] торрент скачать бесплатно
    Рейтинг →
     (голосов: 1, оценка 5/5, голосовать можно 1 раз )

    Другие торренты по теме:

  • Храбрые телохранители / Tian xia di yi biao ju / The Bravest Escort Group (2018) WEB-DL [H.264 / 1080p-LQ] [VO]


    • Комментарии (0):

      Информация

      Информация

        Посетители, находящиеся в группе Гости, не могут оставлять комментарии в данной новости.

        ↓ Меню




        ↓ Опрос

        Вы добавили сайт в закладки?
        Да
        Нет


        Популярное