.
Авторизация | Регистрация
bitok.xyz
Торрент скачать бесплатно Фильмы торрент скачать Храбрые телохранители / Tian xia di yi biao ju / The Bravest Escort Group (2018) WEB-DL [H.264 / 1080p-LQ] [VO] торрент скачать бесплатно


    Храбрые телохранители / Tian xia di yi biao ju / The Bravest Escort Group (2018) WEB-DL [H.264 / 1080p-LQ] [VO] торрент скачать бесплатно

    Дата: 27-01-2020, 05:00 | .torrent скачали: 0

    Храбрые телохранители / Tian xia di yi biao ju / The Bravest Escort Group (2018) WEB-DL [H.264 / 1080p-LQ] [VO]Производство: Китай, Beijing Sheng Shi Hua Ying Culture Communication Co., Ltd
    Жанр: Боевик, исторический
    Режиссер: Тао Мэнси

    Актеры
    Луис Фань, Чэ Юнли, Син Юй, Рэй Луй, Люн Ка-Янь, Кен Ло, Ши Нань, Чэнь Чжихуэй, Си Хун-Бо

    Описание

    Потерпев поражение от армии Цин, министр и генерал династии Мин решают переправить в безопасное место принцессу и карту к богатствам. Они проводят испытание среди эскортов и выбирают самый лучший. Храбрым воинам предстоит проделать опасный путь. И лишь немногие из них вернутся домой живыми...

    Релиз от: vitolinform
    Продолжительность: 01: 30: 04
    Качество видео: WEB-DL
    Перевод: Одноголосый любительский (Виктор Береговых)
    Субтитры: Английские, китайские (hardsub (неотключаемые), русские (softsub (SRT)
    Видео: AVC/H.264, 1920x816, ~2885 Кbps
    Аудио: AC3, 2 ch, 224 Кbps - Русский (VO В.Береговых)
    Аудио: AАC, 2 ch, 192 Кbps - Китайский
    The.Bravest.Escort.Group.2018.WEB-DL.1080P.mkv
    Формат : Matroska
    Версия формата : Version 4
    Размер файла : 2, 08 Гбайт
    Продолжительность : 1 ч. 30 м.
    Общий поток : 3301 Кбит/сек
    Название фильма : Самые храбрые телохранители/The Bravest Escort Group (2018) WEB-DL 1080p
    Дата кодирования : UTC 2020-01-25 12: 30: 55
    Программа кодирования : mkvmerge v42.0.0 (\'Overtime\') 32-bit
    Библиотека кодирования : libebml v1.3.10 + libmatroska v1.5.2
    Видео
    Идентификатор : 1
    Формат : AVC
    Формат/Информация : Advanced Video Codec
    Профиль формата : High@L4
    Настройки формата : CABAC/3 Ref Frames
    Параметр CABAC формата : Да
    Параметр RefFrames формата : 3 кадра
    Идентификатор кодека : V_MPEG4/ISO/AVC
    Продолжительность : 1 ч. 30 м.
    Битрейт : 2885 Кбит/сек
    Ширина : 1920 пикселей
    Высота : 816 пикселей
    Соотношение сторон : 2, 35: 1
    Режим частоты кадров : Постоянный
    Частота кадров : 24, 000 кадра/сек
    Цветовое пространство : YUV
    Субдискретизация насыщенности : 4: 2: 0
    Битовая глубина : 8 бит
    Тип развёртки : Прогрессивная
    Бит/(Пиксели*Кадры) : 0.077
    Размер потока : 1, 82 Гбайт (87%)
    Заголовок : Самые храбрые телохранители/The Bravest Escort Group (2018) WEB-DL 1080p
    Язык : Chinese
    Default : Да
    Forced : Да
    Цветовой диапазон : Limited
    Основные цвета : BT.709
    Характеристики трансфера : BT.709
    Коэффициенты матрицы : BT.709
    Аудио #1
    Идентификатор : 2
    Формат : AC-3
    Формат/Информация : Audio Coding 3
    Коммерческое название : Dolby Digital
    Идентификатор кодека : A_AC3
    Продолжительность : 1 ч. 30 м.
    Вид битрейта : Постоянный
    Битрейт : 224 Кбит/сек
    Каналы : 2 канала
    ChannelLayout : L R
    Частота : 48, 0 КГц
    Частота кадров : 31, 250 кадров/сек (1536 SPF)
    Битовая глубина : 16 бит
    Метод сжатия : С потерями
    Задержка видео : -83 мс.
    Размер потока : 144 Мбайт (7%)
    Заголовок : Виктор Береговых
    Язык : Russian
    ServiceKind/String : Complete Main
    Default : Да
    Forced : Да
    Аудио #2
    Идентификатор : 3
    Формат : AAC LC
    Формат/Информация : Advanced Audio Codec Low Complexity
    Идентификатор кодека : A_AAC-2
    Продолжительность : 1 ч. 30 м.
    Битрейт : 192 Кбит/сек
    Каналы : 2 канала
    ChannelLayout : L R
    Частота : 44, 1 КГц
    Частота кадров : 43, 066 кадра/сек (1024 SPF)
    Метод сжатия : С потерями
    Задержка видео : -83 мс.
    Размер потока : 122 Мбайт (6%)
    Заголовок : Chinese
    Язык : Chinese
    Default : Нет
    Forced : Нет
    Текст
    Идентификатор : 4
    Формат : UTF-8
    Идентификатор кодека : S_TEXT/UTF8
    Идентификатор кодека/Информация : UTF-8 Plain Text
    Продолжительность : 1 ч. 26 м.
    Битрейт : 45 бит/сек
    ElementCount : 702
    Размер потока : 28, 6 Кбайт (0%)
    Заголовок : Виктор Береговых
    Язык : Russian
    Default : Нет
    Forced : Нет


    Онлайн видео Храбрые телохранители



    Храбрые телохранители / Tian xia di yi biao ju / The Bravest Escort Group (2018) WEB-DL [H.264 / 1080p-LQ] [VO] торрент скачать бесплатно
    Рейтинг →
     (голосов: 1, оценка 5/5, голосовать можно 1 раз )

    Другие торренты по теме:

  • Храбрые телохранители / Tian xia di yi biao ju / The Bravest Escort Group (2018) WEB-DLRip [VO]


    • Комментарии (0):

      Информация

      Информация

        Посетители, находящиеся в группе Гости, не могут оставлять комментарии в данной новости.

        ↓ Меню




        ↓ Опрос

        Вы добавили сайт в закладки?
        Да
        Нет


        Популярное