.
Авторизация | Регистрация
bitok.xyz
Торрент скачать бесплатно Фильмы торрент скачать Дом / House (1985) BDRip [H.264] торрент скачать бесплатно


    Дом / House (1985) BDRip [H.264] торрент скачать бесплатно

    Дата: 27-01-2020, 05:00 | .torrent скачали: 0

    Дом / House (1985) BDRip [H.264]Производство: США/New World Pictures, Sean S. Cunningham Films
    Жанр: Ужасы, Фэнтези, Комедия
    Режиссер: Стив Майнер
    Продюсер: Шон С. Каннингэм, Ричард Ф. Брофи, Патрик Марки

    Актеры
    Уильям Кэтт, Джордж Уэндт, Ричард Молл, Кэй Ленц, Мэри Стэвин, Майкл Инсайн, Эрик Сильвер, Марк Сильвер, Сьюзэн Френч, Алан Аутри

    Описание

    Молодой писатель Роджер Кобб испытал на собственной шкуре ужасы вьетнамской войны, но это было лишь началом выпавших на его долю испытаний: брак Роджера развалился, малолетний сын исчез, а кровавые кошмары боев продолжали являться Коббу чуть ли не каждую ночь.
    Чтобы написать книгу о своих переживаниях, Роджер поселился в мрачном, старинном доме, что достался герою по наследству от тети. У дома — не самая лучшая репутация: его хозяйка была найдена повешенной у себя в комнате, и с тех пор по вечерам здесь раздаются странные звуки…

    Возраст: 16+ (зрителям, достигшим 16 лет)
    Рейтинг MPAA: R (лицам до 17 лет обязательно присутствие взрослого)
    Релиз от: Охрана (NNMCLUB)
    Продолжительность: 01: 32: 03
    Качество видео: BDRip
    Перевод: Многоголосый профессиональный, двуголосый профессиональный, авторский
    Субтитры: Английские
    Видео: AVC/H.264, 1024x552, ~2875 Kbps
    Аудио 1: AC3, 2 ch, 192 Kbps, 48.0 kHz – Русский MVO, CP-Digital
    Аудио 2: AC3, 2 ch, 192 Kbps, 48.0 kHz – Русский MVO, ТВЦ
    Аудио 3: AC3, 2 ch, 192 Kbps, 48.0 kHz – Русский DVO, Ren-TV
    Аудио 4: AC3, 2 ch, 192 Kbps, 48.0 kHz – Русский AVO, С. Визгунов
    Аудио 5: AC3, 2 ch, 192 Kbps, 48.0 kHz – Русский AVO, В. Дохалов
    Аудио 6: AC3, 2 ch, 192 Kbps, 48.0 kHz – Английский
    Общее
    Уникальный идентификатор : 194216761115223158003275758135682590689 (0x921CC99FB81B569297C7CB0E4D34E7E1)
    Полное имя : B: DownloadsДом. 1985. NNMCLUB.mkv
    Формат : Matroska
    Версия формата : Version 4/Version 2
    Размер файла : 2, 59 Гбайт
    Продолжительность : 1 ч. 32 м.
    Общий поток : 4030 Кбит/сек
    Дата кодирования : UTC 2020-01-26 05: 02: 04
    Программа кодирования : mkvmerge v7.9.0 (\'Birds\') 64bit
    Библиотека кодирования : libebml v1.3.1 + libmatroska v1.4.2
    Видео
    Идентификатор : 1
    Формат : AVC
    Формат/Информация : Advanced Video Codec
    Профиль формата : High@L4.1
    Настройки формата : CABAC/12 Ref Frames
    Параметр CABAC формата : Да
    Параметр RefFrames формата : 12 кадров
    Идентификатор кодека : V_MPEG4/ISO/AVC
    Продолжительность : 1 ч. 32 м.
    Битрейт : 2875 Кбит/сек
    Ширина : 1024 пикселя
    Высота : 552 пикселя
    Соотношение сторон : 1, 85: 1
    Режим частоты кадров : Постоянный
    Частота кадров : 24, 000 кадра/сек
    Цветовое пространство : YUV
    Субдискретизация насыщенности : 4: 2: 0
    Битовая глубина : 8 бит
    Тип развёртки : Прогрессивная
    Бит/(Пиксели*Кадры) : 0.212
    Размер потока : 1, 85 Гбайт (71%)
    Заголовок : House
    Библиотека кодирования : x264 core 146 r2538 121396c
    Настройки программы : cabac=1/ref=12/deblock=1: -1: -1/analyse=0x3: 0x113/me=umh/subme=10/psy=1/psy_rd=1.00: 0.10/mixed_ref=1/me_range=32/chroma_me=1/trellis=2/8x8dct=1/cqm=0/deadzone=21, 11/fast_pskip=0/chroma_qp_offset=-3/threads=6/lookahead_threads=1/sliced_threads=0/nr=0/decimate=0/interlaced=0/bluray_compat=0/constrained_intra=0/bframes=7/b_pyramid=2/b_adapt=2/b_bias=0/direct=3/weightb=1/open_gop=0/weightp=2/keyint=250/keyint_min=25/scenecut=40/intra_refresh=0/rc_lookahead=60/rc=2pass/mbtree=1/bitrate=2875/ratetol=1.0/qcomp=0.60/qpmin=0/qpmax=69/qpstep=4/cplxblur=20.0/qblur=0.5/vbv_maxrate=14000/vbv_bufsize=14000/nal_hrd=none/filler=0/ip_ratio=1.40/aq=1: 1.00
    Язык : English
    Default : Да
    Forced : Нет
    Аудио #1
    Идентификатор : 2
    Формат : AC-3
    Формат/Информация : Audio Coding 3
    Идентификатор кодека : A_AC3
    Продолжительность : 1 ч. 32 м.
    Вид битрейта : Постоянный
    Битрейт : 192 Кбит/сек
    Каналы : 2 канала
    Расположение каналов : Front: L R
    Частота : 48, 0 КГц
    Частота кадров : 31, 250 кадров/сек (1536 SPF)
    Битовая глубина : 16 бит
    Метод сжатия : С потерями
    Размер потока : 126 Мбайт (5%)
    Заголовок : Многоголосый профессиональный, CP-Digital
    Язык : Russian
    ServiceKind/String : Complete Main
    Default : Да
    Forced : Нет
    Аудио #2
    Идентификатор : 3
    Формат : AC-3
    Формат/Информация : Audio Coding 3
    Идентификатор кодека : A_AC3
    Продолжительность : 1 ч. 32 м.
    Вид битрейта : Постоянный
    Битрейт : 192 Кбит/сек
    Каналы : 2 канала
    Расположение каналов : Front: L R
    Частота : 48, 0 КГц
    Частота кадров : 31, 250 кадров/сек (1536 SPF)
    Битовая глубина : 16 бит
    Метод сжатия : С потерями
    Размер потока : 126 Мбайт (5%)
    Заголовок : Многоголосый профессиональный, ТВЦ
    Язык : Russian
    ServiceKind/String : Complete Main
    Default : Нет
    Forced : Нет
    Аудио #3
    Идентификатор : 4
    Формат : AC-3
    Формат/Информация : Audio Coding 3
    Идентификатор кодека : A_AC3
    Продолжительность : 1 ч. 32 м.
    Вид битрейта : Постоянный
    Битрейт : 192 Кбит/сек
    Каналы : 2 канала
    Расположение каналов : Front: L R
    Частота : 48, 0 КГц
    Частота кадров : 31, 250 кадров/сек (1536 SPF)
    Битовая глубина : 16 бит
    Метод сжатия : С потерями
    Размер потока : 126 Мбайт (5%)
    Заголовок : Двуголосый профессиональный,
    Язык : Russian
    ServiceKind/String : Complete Main
    Default : Нет
    Forced : Нет
    Аудио #4
    Идентификатор : 5
    Формат : AC-3
    Формат/Информация : Audio Coding 3
    Идентификатор кодека : A_AC3
    Продолжительность : 1 ч. 32 м.
    Вид битрейта : Постоянный
    Битрейт : 192 Кбит/сек
    Каналы : 2 канала
    Расположение каналов : Front: L R
    Частота : 48, 0 КГц
    Частота кадров : 31, 250 кадров/сек (1536 SPF)
    Битовая глубина : 16 бит
    Метод сжатия : С потерями
    Размер потока : 126 Мбайт (5%)
    Заголовок : Авторский, С. Визгунов
    Язык : Russian
    ServiceKind/String : Complete Main
    Default : Нет
    Forced : Нет
    Аудио #5
    Идентификатор : 6
    Формат : AC-3
    Формат/Информация : Audio Coding 3
    Идентификатор кодека : A_AC3
    Продолжительность : 1 ч. 32 м.
    Вид битрейта : Постоянный
    Битрейт : 192 Кбит/сек
    Каналы : 2 канала
    Расположение каналов : Front: L R
    Частота : 48, 0 КГц
    Частота кадров : 31, 250 кадров/сек (1536 SPF)
    Битовая глубина : 16 бит
    Метод сжатия : С потерями
    Размер потока : 126 Мбайт (5%)
    Заголовок : Авторский, В. Дохалов
    Язык : Russian
    ServiceKind/String : Complete Main
    Default : Нет
    Forced : Нет
    Аудио #6
    Идентификатор : 7
    Формат : AC-3
    Формат/Информация : Audio Coding 3
    Идентификатор кодека : A_AC3
    Продолжительность : 1 ч. 32 м.
    Вид битрейта : Постоянный
    Битрейт : 192 Кбит/сек
    Каналы : 2 канала
    Расположение каналов : Front: L R
    Частота : 48, 0 КГц
    Частота кадров : 31, 250 кадров/сек (1536 SPF)
    Битовая глубина : 16 бит
    Метод сжатия : С потерями
    Размер потока : 126 Мбайт (5%)
    Заголовок : Английский
    Язык : English
    ServiceKind/String : Complete Main
    Default : Нет
    Forced : Нет
    Текст
    Идентификатор : 8
    Формат : UTF-8
    Идентификатор кодека : S_TEXT/UTF8
    Идентификатор кодека/Информация : UTF-8 Plain Text
    Продолжительность : 1 ч. 29 м.
    Битрейт : 40 бит/сек
    ElementCount : 850
    Размер потока : 26, 6 Кбайт (0%)
    Заголовок : Full
    Язык : English
    Default : Нет
    Forced : Нет

    Скриншоты для ознакомления




    Все одноименные релизы в Клубе
    Время раздачи: с 13: 00 до 01: 00 МСК, выходные круглосуточно (до появления первых 3-5 скачавших)

    Онлайн видео Дом



    Дом / House (1985) BDRip [H.264] торрент скачать бесплатно
    Рейтинг →
     (голосов: 1, оценка 4/5, голосовать можно 1 раз )

    Другие торренты по теме:

  • Тайник / Stash House (2012) BDRip
  • Дом призраков / Dark House (2014) BDRip [576p] iPad
  • Дом забытых вещей / House of Last Things (2013) BDRip [1080p] скачать через торрент бесплатно
  • Карточный домик / House of Cards (2013) BDRip [H.264 / 720p-LQ] (Сезон 1, серии 1-13 из 13) (Первый)
  • Штурм Белого дома / White House Down (2013) BDRip [H.264] скачать через торрент бесплатно
  • Общага / Alpha House (2014) BDRip [1080p] [VO] скачать через торрент бесплатно
  • Дом большой мамочки / Big Mommas House (2000, 2006) BDRip [дилогия]
  • Дом восковых фигур / House of Wax (2005) BDRip [1080p]


    • Комментарии (0):

      Информация

      Информация

        Посетители, находящиеся в группе Гости, не могут оставлять комментарии в данной новости.

        ↓ Меню




        ↓ Опрос

        Вы добавили сайт в закладки?
        Да
        Нет


        Популярное