.
Авторизация | Регистрация
bitok.xyz
Торрент скачать бесплатно Фильмы торрент скачать Любовь и магия чудесного Дэбикуро-куна / Miracle: Debikurokun no koi to mahou / Miracle: Devil Claus Love and Magic (2014) HDRip [MVO] торрент скачать бесплатно


    Любовь и магия чудесного Дэбикуро-куна / Miracle: Debikurokun no koi to mahou / Miracle: Devil Claus Love and Magic (2014) HDRip [MVO] торрент скачать бесплатно

    Дата: 27-01-2020, 05:00 | .torrent скачали: 0

    Любовь и магия чудесного Дэбикуро-куна / Miracle: Debikurokun no koi to mahou / Miracle: Devil Claus Love and Magic (2014) HDRip [MVO]Производство: Япония, Asmik Ace Entertainment, Toho Company, J Storm
    Жанр: Драма, мелодрама
    Режиссер: Иссин Инудо
    Продюсер: Мияко Араки, Джули К. Фудзисима, Минами Итикава

    Актеры
    Хан Хё-джу, Мивако Итикава, Тома Икута, Макико Ватанабэ, Нана Эикура, Масаки Аиба, Кэйта Ниномия, Ёити Нукумидзу, Юкино Кисии

    Описание

    Хикари работает в книжном магазине. Он человек, доброта которого очень часто делает его жалким. Хикари надеется стать писателем манги. По ночам он распространяет листовки Дебикуро коммуникации. Однажды, он встречает кого-то на своем жизненном пути. Анна была другом Хикари, когда они были детьми. Так-Янг, всемирно известный художник, ему случается узнать Хикари. Китаяма, учился в том же университете, что и Хикари. Китаяма популярный писатель манги. Любовь сотворит чудо в жизнях этих четырёх человек в разгар рождественской ночи.

    Релиз от: Rip by vitolinform
    Продолжительность: 01: 54: 17
    Качество видео: HDRip
    Перевод: Многоголосый любительский (Asian Miracle Group)
    Субтитры: Английские - отдельным файлом
    Видео: Xvid, 720x384, ~1627 kbps
    Аудио 1: AC3, 2 ch, 192 Кbps | Русский (MVO)
    Аудио 2: AC3, 6 ch, 448 Кbps | Японский - отдельным файлом
    Lubov.i.magiya.chudesnogo.Debikurokuna.2014.HDRipLubov.i.magiya.chudesnogo.Debikurokuna.2014.HDRip.avi
    Формат : AVI
    Формат/Информация : Audio Video Interleave
    Размер файла : 1, 46 Гбайт
    Продолжительность : 1 ч. 54 м.
    Общий поток : 1828 Кбит/сек
    Название фильма : Любовь и магия чудесного Дэбикуро-куна/Miracle: Debikurokun no koi to mahou (2014) HDRip
    Режиссёр : Иссин Инудо/Isshin Inudo
    Жанр : Драма, мелодрама
    Программа кодирования : VirtualDubMod 1.5.10.2 (build 2542/release)
    Формат оригинала/Имя : Художественный фильм
    Авторское право : Япония, Asmik Ace Entertainment, J Storm, Shogakukan Inc., Toho Company
    Примечание : Rip by vitolinform
    Видео
    Идентификатор : 0
    Формат : MPEG-4 Visual
    Профиль формата : Advanced Simple@L5
    Настройки формата : BVOP2
    Параметр BVOP формата : 2
    Параметр QPel формата : Нет
    Параметр GMC формата : Без точки перехода
    Параметр матрицы формата : Default (MPEG)
    Идентификатор кодека : XVID
    Идентификатор кодека/Подсказка : XviD
    Продолжительность : 1 ч. 54 м.
    Битрейт : 1627 Кбит/сек
    Ширина : 720 пикселей
    Высота : 384 пикселя
    Соотношение сторон : 1, 85: 1
    Частота кадров : 23, 976 (24000/1001) кадра/сек
    Цветовое пространство : YUV
    Субдискретизация насыщенности : 4: 2: 0
    Битовая глубина : 8 бит
    Тип развёртки : Прогрессивная
    Метод сжатия : С потерями
    Бит/(Пиксели*Кадры) : 0.245
    Размер потока : 1, 30 Гбайт (89%)
    Библиотека кодирования : XviD 67
    Аудио
    Идентификатор : 1
    Формат : AC-3
    Формат/Информация : Audio Coding 3
    Коммерческое название : Dolby Digital
    Идентификатор кодека : 2000
    Продолжительность : 1 ч. 54 м.
    Вид битрейта : Постоянный
    Битрейт : 192 Кбит/сек
    Каналы : 2 канала
    ChannelLayout : L R
    Частота : 48, 0 КГц
    Частота кадров : 31, 250 кадров/сек (1536 SPF)
    Битовая глубина : 16 бит
    Метод сжатия : С потерями
    Размер потока : 157 Мбайт (11%)
    Выравнивание : Разделение по промежуткам
    Продолжительность промежутка : 42 мс. (1, 00 видеокадр)
    Время предзагрузки промежутка : 500 мс.
    Заголовок : Russian (MVO Asian Miracle Group)
    ServiceKind/String : Complete Main
    ===============================================
    Lubov.i.magiya.chudesnogo.Debikurokuna.2014.HDRipLubov.i.magiya.chudesnogo.Debikurokuna.2014.HDRip_jap.ac3
    Формат : AC-3
    Формат/Информация : Audio Coding 3
    Коммерческое название : Dolby Digital
    Размер файла : 366 Мбайт
    Продолжительность : 1 ч. 54 м.
    Режим общего битрейта : Постоянный
    Общий поток : 448 Кбит/сек
    Аудио
    Формат : AC-3
    Формат/Информация : Audio Coding 3
    Коммерческое название : Dolby Digital
    Продолжительность : 1 ч. 54 м.
    Вид битрейта : Постоянный
    Битрейт : 448 Кбит/сек
    Каналы : 6 каналов
    ChannelLayout : L R C LFE Ls Rs
    Частота : 48, 0 КГц
    Частота кадров : 31, 250 кадров/сек (1536 SPF)
    Битовая глубина : 16 бит
    Метод сжатия : С потерями
    Размер потока : 366 Мбайт (100%)
    ServiceKind/String : Complete Main


    Онлайн видео Любовь и магия чудесного Дэбикуро-куна



    Любовь и магия чудесного Дэбикуро-куна / Miracle: Debikurokun no koi to mahou / Miracle: Devil Claus Love and Magic (2014) HDRip [MVO] торрент скачать бесплатно
    Рейтинг →
     (голосов: 1, оценка 4/5, голосовать можно 1 раз )

    Другие торренты по теме:

  • Книжная серия | Любовь и Магия [12 книг] (2015-2016) [FB2]
  • Книжная серия | Любовь и Магия [21 книга. Обновляемая] (2015-2017) [FB2]
  • Хэл Элрод и др. | Магия утра для влюбленных. Как найти и удержать любовь и страсть (2019) [EPUB, PDF]


    • Комментарии (0):

      Информация

      Информация

        Посетители, находящиеся в группе Гости, не могут оставлять комментарии в данной новости.

        ↓ Меню




        ↓ Опрос

        Вы добавили сайт в закладки?
        Да
        Нет


        Популярное