.
Авторизация | Регистрация
bitok.xyz
Торрент скачать бесплатно Фильмы торрент скачать Плохие соседи по комнате / Bad Roomies (2015) WEBRip [H.264 / 1080p-LQ] [DVO] [PR] торрент скачать бесплатно


    Плохие соседи по комнате / Bad Roomies (2015) WEBRip [H.264 / 1080p-LQ] [DVO] [PR] торрент скачать бесплатно

    Дата: 27-01-2020, 05:00 | .torrent скачали: 0

    Плохие соседи по комнате / Bad Roomies (2015) WEBRip [H.264 / 1080p-LQ] [DVO] [PR]Производство: США, Eastside Films
    Жанр: Комедия
    Режиссер: Джейсон Шнель

    Актеры
    Патрик Ренна, Томми Савас, Энни Монро, Джеки Тон, Пейдж Кеннеди, Кайл Ховард, Джорди Мастерсон, Кристофер Мастерсон, Линси Бартилсон, Эрик Памфри

    Описание

    Черная комедия о двух парнях, живущих вместе, которые, потеряв своего соседа, дают объявление, чтобы найти нового. После серии собеседований с потенциальными соседями по комнате они останавливаются на, казалось бы, безобидной и красивой девушке. Кипящее соперничество, катастрофическая игра соседей в борьбе за девушку, которая изменит всю их жизнь навсегда.

    Продолжительность: 01: 33: 56
    Качество видео: WEBRip
    Перевод: Двуголосый любительский (Parovoz Production)
    Субтитры: Английские
    Видео: AVC/H.264, 1920x1080р, ~3010 Kbps
    Аудио #1: AC3, 2 ch, 192 kbps - Русский
    Аудио #2: AC3, 6 ch, 384 kbps - Английский
    General
    Unique ID : 132237177514520708274406717470087135986 (0x637BF438ED78B279B3769F584C0542F2)
    Complete name : F: Новая папка (17)Bad.Roomies.2015.NF.WEBRip 1080p.mkv
    Format : Matroska
    Format version : Version 4
    File size : 2.34 GiB
    Duration : 1 h 33 min
    Overall bit rate mode : Variable
    Overall bit rate : 3 565 kb/s
    Movie name : Bad.Roomies.2015.NF.WEBRip 1080p
    Encoded date : UTC 2019-12-28 16: 41: 26
    Writing application : mkvmerge v29.0.0 (\'Like It Or Not\') 64-bit
    Writing library : libebml v1.3.6 + libmatroska v1.4.9
    Video
    ID : 1
    Format : AVC
    Format/Info : Advanced Video Codec
    Format profile : Main@L4
    Format settings : CABAC/3 Ref Frames
    Format settings, CABAC : Yes
    Format settings, RefFrames : 3 frames
    Codec ID : V_MPEG4/ISO/AVC
    Duration : 1 h 33 min
    Bit rate mode : Variable
    Bit rate : 3 010 kb/s
    Maximum bit rate : 4 515 kb/s
    Width : 1 920 pixels
    Height : 1 080 pixels
    Display aspect ratio : 16: 9
    Frame rate mode : Constant
    Frame rate : 23.976 (24000/1001) FPS
    Color space : YUV
    Chroma subsampling : 4: 2: 0
    Bit depth : 8 bits
    Scan type : Progressive
    Bits/(Pixel*Frame) : 0.061
    Stream size : 1.96 GiB (84%)
    Title : Bad.Roomies.2015.NF.WEBRip 1080p
    Writing library : x264 core 118
    Encoding settings : cabac=1/ref=3/deblock=1: 0: 0/analyse=0x1: 0x111/me=umh/subme=10/psy=1/psy_rd=1.00: 0.00/mixed_ref=1/me_range=24/chroma_me=1/trellis=2/8x8dct=0/cqm=0/deadzone=21, 11/fast_pskip=1/chroma_qp_offset=-2/threads=6/sliced_threads=0/nr=0/decimate=1/interlaced=0/bluray_compat=0/constrained_intra=0/bframes=2/b_pyramid=0/b_adapt=2/b_bias=0/direct=3/weightb=1/open_gop=0/weightp=2/keyint=48/keyint_min=25/scenecut=0/intra_refresh=0/rc_lookahead=0/rc=2pass/mbtree=1/bitrate=3010/ratetol=1.0/qcomp=0.50/qpmin=6/qpmax=51/qpstep=4/cplxblur=20.0/qblur=0.5/vbv_maxrate=4515/vbv_bufsize=6020/nal_hrd=vbr/ip_ratio=1.40/aq=1: 1.00
    Default : Yes
    Forced : No
    Audio #1
    ID : 2
    Format : AC-3
    Format/Info : Audio Coding 3
    Commercial name : Dolby Digital
    Codec ID : A_AC3
    Duration : 1 h 33 min
    Bit rate mode : Constant
    Bit rate : 192 kb/s
    Channel(s) : 2 channels
    Channel layout : L R
    Sampling rate : 48.0 kHz
    Frame rate : 31.250 FPS (1536 SPF)
    Bit depth : 16 bits
    Compression mode : Lossy
    Stream size : 129 MiB (5%)
    Language : Russian
    Service kind : Complete Main
    Default : Yes
    Forced : No
    Audio #2
    ID : 3
    Format : AC-3
    Format/Info : Audio Coding 3
    Commercial name : Dolby Digital
    Codec ID : A_AC3
    Duration : 1 h 33 min
    Bit rate mode : Constant
    Bit rate : 384 kb/s
    Channel(s) : 6 channels
    Channel layout : L R C LFE Ls Rs
    Sampling rate : 48.0 kHz
    Frame rate : 31.250 FPS (1536 SPF)
    Bit depth : 16 bits
    Compression mode : Lossy
    Stream size : 258 MiB (11%)
    Language : English
    Service kind : Complete Main
    Default : No
    Forced : No
    Text
    ID : 4
    Format : UTF-8
    Codec ID : S_TEXT/UTF8
    Codec ID/Info : UTF-8 Plain Text
    Duration : 1 h 33 min
    Bit rate : 64 b/s
    Count of elements : 1404
    Stream size : 43.8 KiB (0%)
    Language : English
    Default : No
    Forced : No
    Menu
    00: 00: 00.000 : en: And it Ends
    00: 12: 03.000 : en: House Rules
    00: 20: 17.000 : en: Living Dangerously
    00: 28: 33.000 : en: Party Party
    00: 35: 29.000 : en: Morning After
    00: 45: 00.000 : en: Being an Adult
    00: 57: 35.000 : en: Truth Hurts
    01: 04: 10.000 : en: Keeping it Cool
    01: 10: 32.000 : en: Decisions, Decisions
    01: 16: 54.000 : en: Best Laid Plans...
    01: 22: 24.000 : en: Not Yet Out of the Woods
    01: 30: 10.000 : en: End Credits

    Скриншоты для ознакомления



    Все одноименные релизы в Клубе
    Время раздачи: 24/7 (до появления первых 3-5 скачавших)

    Онлайн видео Плохие соседи по комнате



    Плохие соседи по комнате / Bad Roomies (2015) WEBRip [H.264 / 1080p-LQ] [DVO] [PR] торрент скачать бесплатно
    Рейтинг →
     (голосов: 1, оценка 5/5, голосовать можно 1 раз )

    Другие торренты по теме:

  • Н. М. Жирмунская (сост.) | Хорошие и плохие соседи на огородной грядке [Второе издание] (2002) [PDF, DJVU] скачать через торрент бесплатно
  • Плохие соседи по комнате / Bad Roomies (2015) WEB-DLRip скачать через торрент бесплатно
  • Плохие соседи по комнате / Bad Roomies (2015) WEB-DL [H.264 / 720p-LQ] скачать через торрент бесплатно


    • Комментарии (0):

      Информация

      Информация

        Посетители, находящиеся в группе Гости, не могут оставлять комментарии в данной новости.

        ↓ Меню




        ↓ Опрос

        Вы добавили сайт в закладки?
        Да
        Нет


        Популярное