.
Авторизация | Регистрация
bitok.xyz
Торрент скачать бесплатно Фильмы торрент скачать Девушка на мосту / La fille sur le pont (1999) DVDRip [H.264] торрент скачать бесплатно


    Девушка на мосту / La fille sur le pont (1999) DVDRip [H.264] торрент скачать бесплатно

    Дата: 27-01-2020, 05:00 | .torrent скачали: 0

    Девушка на мосту / La fille sur le pont (1999) DVDRip [H.264]Производство: Франция/Canal+, France 2 Cinéma, Les Films Christian Fechner
    Жанр: Драма, мелодрама, комедия
    Режиссер: Патрис Леконт

    Актеры
    Ванесса Паради, Даниель Отой, Фредерик Пфлюгер, Деметре Георгалас, Катрин Ласко, Изабель Пети-Жак, Мирей Моссе, Дидье Лемуан, Берти Кортес, Стефан Мецгер

    Описание

    Два главных героя фильма — метатель ножей Габор и девушка Адель, которая намеревается покончить с собой, прыгнув с моста. Габор, который тоже находится в пограничном состоянии, вмешивается и предотвращает самоубийство. Ему удаётся уговорить Адель стать мишенью в представлении по метанию ножей. Они путешествуют с этим номером по Европе, и в конце попадают в Стамбул…

    Возраст: 16+ (зрителям, достигшим 16 лет)
    Рейтинг MPAA: R (лицам до 17 лет обязательно присутствие взрослого)
    Продолжительность: 01: 27: 42
    Качество видео: DVDRip
    Перевод: Многоголосый профессиональный
    Субтитры: Русские, английские
    Видео: AVC/H.264, 720x304, ~1650 kbps
    Аудио 1: AC3, 6 ch, 448 kbps | Русский MVO (Пирамида/CP-Digital)
    Аудио 2: AC3, 2 ch, 192 kbps | Русский MVO (НТВ+ по заказу НТВ)
    Аудио 3: AC3, 6 ch, 448 kbps | Французский (Оригинал)
    Общее
    Уникальный идентификатор : 253900203853248668557002236699784431580 (0xBF03668A5C0CD4CB9681A3561E32C7DC)
    Полное имя : I: Даниель ОтёйДевушка на мостуДевушка на мосту. 1999.mkv
    Формат : Matroska
    Версия формата : Version 4/Version 2
    Размер файла : 1, 68 Гбайт
    Продолжительность : 1 ч. 27 м.
    Общий поток : 2740 Кбит/сек
    Название фильма : Release for Topmost
    Дата кодирования : UTC 2020-01-24 17: 10: 36
    Программа кодирования : mkvmerge v6.2.0 (\'Promised Land\') built on Apr 28 2013 12: 22: 01
    Библиотека кодирования : libebml v1.3.0 + libmatroska v1.4.0
    Attachment : Yes
    Видео
    Идентификатор : 1
    Формат : AVC
    Формат/Информация : Advanced Video Codec
    Профиль формата : High@L4.1
    Параметр CABAC формата : Да
    Параметр ReFrames формата : 12 кадров
    Идентификатор кодека : V_MPEG4/ISO/AVC
    Продолжительность : 1 ч. 27 м.
    Битрейт : 1650 Кбит/сек
    Ширина : 720 пикселей
    Высота : 304 пикселя
    Соотношение сторон : 2, 35: 1
    Режим частоты кадров : Постоянный
    Частота кадров : 25, 000 кадров/сек
    Цветовое пространство : YUV
    Субдискретизация насыщенности : 4: 2: 0
    Битовая глубина : 8 бит
    Тип развёртки : Прогрессивная
    Бит/(Пиксели*Кадры) : 0.302
    Размер потока : 1002 Мбайт (58%)
    Заголовок : Девушка на мосту. 1999/Release for Topmost/
    Библиотека кодирования : x264 core 146 r2538 121396c
    Настройки программы : cabac=1/ref=12/deblock=1: -3: -3/analyse=0x3: 0x113/me=umh/subme=11/psy=1/psy_rd=1.00: 0.15/mixed_ref=1/me_range=32/chroma_me=1/trellis=2/8x8dct=1/cqm=0/deadzone=21, 11/fast_pskip=0/chroma_qp_offset=-3/threads=12/lookahead_threads=2/sliced_threads=0/nr=0/decimate=0/interlaced=0/bluray_compat=0/constrained_intra=0/bframes=8/b_pyramid=2/b_adapt=2/b_bias=0/direct=1/weightb=1/open_gop=0/weightp=2/keyint=240/keyint_min=23/scenecut=40/intra_refresh=0/rc_lookahead=40/rc=2pass/mbtree=0/bitrate=1650/ratetol=1.0/qcomp=0.60/qpmin=0/qpmax=69/qpstep=4/cplxblur=20.0/qblur=0.5/vbv_maxrate=14000/vbv_bufsize=14000/nal_hrd=none/filler=0/ip_ratio=1.40/pb_ratio=1.30/aq=1: 0.90
    Язык : French
    Default : Да
    Forced : Нет
    Аудио #1
    Идентификатор : 2
    Формат : AC-3
    Формат/Информация : Audio Coding 3
    Расширение режима : CM (complete main)
    Параметр Endianness формата : Big
    Идентификатор кодека : A_AC3
    Продолжительность : 1 ч. 27 м.
    Вид битрейта : Постоянный
    Битрейт : 448 Кбит/сек
    Каналы : 6 каналов
    Расположение каналов : Front: L C R, Side: L R, LFE
    Частота : 48, 0 КГц
    Битовая глубина : 16 бит
    Метод сжатия : С потерями
    Размер потока : 281 Мбайт (16%)
    Заголовок : многоголосый (Пирамида/CP-Digital)
    Язык : Russian
    Default : Да
    Forced : Нет
    Аудио #2
    Идентификатор : 3
    Формат : AC-3
    Формат/Информация : Audio Coding 3
    Расширение режима : CM (complete main)
    Параметр Endianness формата : Big
    Идентификатор кодека : A_AC3
    Продолжительность : 1 ч. 27 м.
    Вид битрейта : Постоянный
    Битрейт : 192 Кбит/сек
    Каналы : 2 канала
    Расположение каналов : Front: L R
    Частота : 48, 0 КГц
    Битовая глубина : 16 бит
    Метод сжатия : С потерями
    Размер потока : 120 Мбайт (7%)
    Заголовок : Многоголосый (НТВ+ по заказу НТВ)
    Язык : Russian
    Default : Нет
    Forced : Нет
    Аудио #3
    Идентификатор : 4
    Формат : AC-3
    Формат/Информация : Audio Coding 3
    Расширение режима : CM (complete main)
    Параметр Endianness формата : Big
    Идентификатор кодека : A_AC3
    Продолжительность : 1 ч. 27 м.
    Вид битрейта : Постоянный
    Битрейт : 448 Кбит/сек
    Каналы : 6 каналов
    Расположение каналов : Front: L C R, Side: L R, LFE
    Частота : 48, 0 КГц
    Битовая глубина : 16 бит
    Метод сжатия : С потерями
    Размер потока : 281 Мбайт (16%)
    Заголовок : Original
    Язык : French
    Default : Нет
    Forced : Нет
    Текст #1
    Идентификатор : 5
    Формат : UTF-8
    Идентификатор кодека : S_TEXT/UTF8
    Идентификатор кодека/Информация : UTF-8 Plain Text
    Язык : Russian
    Default : Да
    Forced : Нет
    Текст #2
    Идентификатор : 6
    Формат : UTF-8
    Идентификатор кодека : S_TEXT/UTF8
    Идентификатор кодека/Информация : UTF-8 Plain Text
    Язык : English
    Default : Нет
    Forced : Нет


    Онлайн видео Девушка на мосту



    Девушка на мосту / La fille sur le pont (1999) DVDRip [H.264] торрент скачать бесплатно
    Рейтинг →
     (голосов: 1, оценка 4/5, голосовать можно 1 раз )

    Другие торренты по теме:

  • Миллениум: Трилогия Девушка с татуировкой дракона / Девушка, которая играла с огнем / Девушка, которая взрывала воздушные замки / Man som hatar kvinnor / Flickan som lekte med elden / Luftslottet som sprangdes (2009) [720p] BDRip
  • Если твоя девушка – зомби / Life After Beth (2014) WEB-DLRip
  • Если твоя девушка – зомби / Life After Beth (2014) WEB-DL [720p] ATV скачать через торрент бесплатно
  • Если твоя девушка – зомби / Life After Beth (2014) BDRip [H.264]
  • Если твоя девушка – зомби / Life After Beth (2014) BDRip [720p]
  • Если твоя девушка – зомби / Life After Beth (2014) BDRip [1080p]
  • Девушка и волки / La jeune fille et les loups (2008) DVDRip
  • Девушка с маяка (1956) DVDRip [H.264]


    • Комментарии (0):

      Информация

      Информация

        Посетители, находящиеся в группе Гости, не могут оставлять комментарии в данной новости.

        ↓ Меню




        ↓ Опрос

        Вы добавили сайт в закладки?
        Да
        Нет


        Популярное