.
Авторизация | Регистрация
bitok.xyz
Торрент скачать бесплатно Фильмы торрент скачать Подходим ли мы друг другу, дорогой / Hodime se k sobe, milacku... (1975) DVDRip [H.264] торрент скачать бесплатно


    Подходим ли мы друг другу, дорогой / Hodime se k sobe, milacku... (1975) DVDRip [H.264] торрент скачать бесплатно

    Дата: 27-01-2020, 05:00 | .torrent скачали: 0

    Подходим ли мы друг другу, дорогой / Hodime se k sobe, milacku... (1975) DVDRip [H.264]Производство: Чехословакия/Filmové Studio Barrandov
    Жанр: Комедия
    Режиссер: Петр Шульхофф

    Актеры
    Яна Брейхова, Властимил Бродский, Регина Разлова, Йозеф Блага, Ива Янжурова, Франтишек Петерка, Стелла Зазворкова, Владимир Меншик, Станислава Бартошова, Ева Ироушкова

    Описание

    Супруги Марта и Виктор Томаш после 10 лет супружества устали друг от друга и считают, что их брак не сложился. У них абсолютно разные взгляды на жизнь. Она витает в высоких материях, но забывает приготовить ужин, ему плевать на искусство, но футбол, пиво и телевизор — его основные увлечения. Ситуация усугубляется тем, что подруга Марты Алена выходит замуж в третий раз и счастлива в браке. Партнера она нашла в Институте кибернетики, по совместительству подыскивающего идеальные кандидатуры для одиноких соискателей счастья. После очередного скандала они отправляются в институт для поиска идеального партнера.

    Релиз от: Охрана (NNMCLUB)
    Продолжительность: 01: 37: 33
    Качество видео: DVDRip
    Перевод: Дублированный, киностудия Мосфильм
    Субтитры: Русские (на сцены без перевода)
    Видео: AVC/H.264, 720x544, ~2015 Kbps
    Аудио 1: AC3, 2 ch, 192 Kbps, 48.0 kHz – Русский
    Аудио 2: AC3, 2 ch, 224 Kbps, 48.0 kHz – Чешский
    Общее
    Уникальный идентификатор : 196059128047122135165763933796896495199 (0x937F9D53A646F9F0868C5BFC3FC2565F)
    Полное имя : B: DownloadsПодходим ли мы друг другу, дорогой. 1975. NNMCLUB.mkv
    Формат : Matroska
    Версия формата : Version 4/Version 2
    Размер файла : 1, 66 Гбайт
    Продолжительность : 1 ч. 37 м.
    Общий поток : 2433 Кбит/сек
    Дата кодирования : UTC 2020-01-23 22: 08: 57
    Программа кодирования : mkvmerge v7.9.0 (\'Birds\') 64bit
    Библиотека кодирования : libebml v1.3.1 + libmatroska v1.4.2
    Видео
    Идентификатор : 1
    Формат : AVC
    Формат/Информация : Advanced Video Codec
    Профиль формата : High@L4.1
    Настройки формата : CABAC/12 Ref Frames
    Параметр CABAC формата : Да
    Параметр RefFrames формата : 12 кадров
    Идентификатор кодека : V_MPEG4/ISO/AVC
    Продолжительность : 1 ч. 37 м.
    Битрейт : 2015 Кбит/сек
    Ширина : 720 пикселей
    Высота : 544 пикселя
    Соотношение сторон : 4: 3
    Режим частоты кадров : Постоянный
    Частота кадров : 25, 000 кадров/сек
    Цветовое пространство : YUV
    Субдискретизация насыщенности : 4: 2: 0
    Битовая глубина : 8 бит
    Тип развёртки : Прогрессивная
    Бит/(Пиксели*Кадры) : 0.206
    Размер потока : 1, 37 Гбайт (83%)
    Заголовок : Hodíme se k sobe, milácku...?
    Библиотека кодирования : x264 core 146 r2538 121396c
    Настройки программы : cabac=1/ref=12/deblock=1: -1: -1/analyse=0x3: 0x113/me=umh/subme=10/psy=1/psy_rd=1.00: 0.10/mixed_ref=1/me_range=32/chroma_me=1/trellis=2/8x8dct=1/cqm=0/deadzone=21, 11/fast_pskip=0/chroma_qp_offset=-3/threads=6/lookahead_threads=1/sliced_threads=0/nr=0/decimate=0/interlaced=0/bluray_compat=0/constrained_intra=0/bframes=7/b_pyramid=2/b_adapt=2/b_bias=0/direct=3/weightb=1/open_gop=0/weightp=2/keyint=250/keyint_min=25/scenecut=40/intra_refresh=0/rc_lookahead=60/rc=2pass/mbtree=1/bitrate=2015/ratetol=1.0/qcomp=0.60/qpmin=0/qpmax=69/qpstep=4/cplxblur=20.0/qblur=0.5/vbv_maxrate=14000/vbv_bufsize=14000/nal_hrd=none/filler=0/ip_ratio=1.40/aq=1: 1.00
    Язык : Czech
    Default : Да
    Forced : Нет
    Аудио #1
    Идентификатор : 2
    Формат : AC-3
    Формат/Информация : Audio Coding 3
    Идентификатор кодека : A_AC3
    Продолжительность : 1 ч. 37 м.
    Вид битрейта : Постоянный
    Битрейт : 192 Кбит/сек
    Каналы : 2 канала
    Расположение каналов : Front: L R
    Частота : 48, 0 КГц
    Частота кадров : 31, 250 кадров/сек (1536 SPF)
    Битовая глубина : 16 бит
    Метод сжатия : С потерями
    Размер потока : 134 Мбайт (8%)
    Заголовок : Дублированный
    Язык : Russian
    ServiceKind/String : Complete Main
    Default : Да
    Forced : Нет
    Аудио #2
    Идентификатор : 3
    Формат : AC-3
    Формат/Информация : Audio Coding 3
    Идентификатор кодека : A_AC3
    Продолжительность : 1 ч. 37 м.
    Вид битрейта : Постоянный
    Битрейт : 224 Кбит/сек
    Каналы : 2 канала
    Расположение каналов : Front: L R
    Частота : 48, 0 КГц
    Частота кадров : 31, 250 кадров/сек (1536 SPF)
    Битовая глубина : 16 бит
    Метод сжатия : С потерями
    Размер потока : 156 Мбайт (9%)
    Заголовок : Чешский
    Язык : Czech
    ServiceKind/String : Complete Main
    Default : Нет
    Forced : Нет
    Текст
    Идентификатор : 4
    Формат : VobSub
    Режим смешивания : zlib
    Идентификатор кодека : S_VOBSUB
    Идентификатор кодека/Информация : Picture based subtitle format used on DVDs
    Продолжительность : 1 ч. 37 м.
    Битрейт : 398 бит/сек
    ElementCount : 206
    Размер потока : 283 Кбайт (0%)
    Заголовок : На места без перевода
    Язык : Russian
    Default : Да
    Forced : Нет

    Скриншоты для ознакомления




    Все одноименные релизы в Клубе
    Время раздачи: с 13: 00 до 01: 00 МСК, выходные круглосуточно (до появления первых 3-5 скачавших)

    Онлайн видео Подходим ли мы друг другу, дорогой



    Подходим ли мы друг другу, дорогой / Hodime se k sobe, milacku... (1975) DVDRip [H.264] торрент скачать бесплатно
    Рейтинг →
     (голосов: 1, оценка 5/5, голосовать можно 1 раз )

    Другие торренты по теме:



      Комментарии (0):

      Информация

      Информация

        Посетители, находящиеся в группе Гости, не могут оставлять комментарии в данной новости.

        ↓ Меню




        ↓ Опрос

        Вы добавили сайт в закладки?
        Да
        Нет


        Популярное