.
Авторизация | Регистрация
bitok.xyz
Торрент скачать бесплатно Фильмы торрент скачать Мидуэй / Midway (1976) HDRip [H.265] [10-bit] торрент скачать бесплатно


    Мидуэй / Midway (1976) HDRip [H.265] [10-bit] торрент скачать бесплатно

    Дата: 27-01-2020, 05:00 | .torrent скачали: 1

    Мидуэй / Midway (1976) HDRip [H.265] [10-bit]Производство: США (Mirisch Corporation, The Universal Pictures)
    Жанр: Боевик, драма, военный, история
    Режиссер: Джек Смайт

    Актеры
    Хэл Холбрук, Генри Фонда, Джеймс Коберн, Пэт Морита, Клифф Робертсон, Том Селлек, Чарлтон Хестон, Роберт Митчум, Сьюзэн Салливан, Дэбни Коулмен...

    Описание

    История одного из самых масштабных и стратегически важных морских сражений на Тихом океане Второй мировой войны между США и Японией за тихоокеанский атолл Мидуэй. Это правдивая история сражения, ставшего переломным пунктом тихоокеанской кампании. Эта битва - пример того, как расчет и отвага, ошибка и случайность нередко решают ход великих событий...

    Рейтинг MPAA: PG (рекомендуется присутствие родителей)
    Продолжительность: 02: 11: 28
    Качество видео: HDRip
    Перевод: Профессиональный многоголосый (6-й канал Санкт-Петербург)
    Субтитры: Русские, английские
    Видео: HEVC/H.265, 1024x436, 1955 Kbps
    Аудио 1 : AC3, 2 ch, 160 Kbps | Русский
    Аудио 2 : AC3, 2 ch, 160 Kbps | АнглийскийОбщее
    Уникальный идентификатор : 59835157844955531430109062222531651677 (0x2D03D50C817D6A7328F690EF2341E85D)
    Полное имя : Midway.1976.HDRip.HEVC.mkv
    Формат : Matroska
    Версия формата : Version 4/Version 2
    Размер файла : 2, 13 Гбайт
    Продолжительность : 2 ч. 11 м.
    Общий поток : 2322 Кбит/сек
    Программа кодирования : XviD4PSP 8.0.91
    Библиотека кодирования : Lavf58.20.100
    ErrorDetectionType : Per level 1
    ENCODING_INFO : MATROSKA, WEBM MKV Пользовательский
    Видео
    Идентификатор : 1
    Формат : HEVC
    Формат/Информация : High Efficiency Video Coding
    Профиль формата : Main10@L4.1@High
    Идентификатор кодека : V_MPEGH/ISO/HEVC
    Продолжительность : 2 ч. 11 м.
    Битрейт : 1955 Кбит/сек
    Ширина : 1024 пикселя
    Высота : 436 пикселей
    Соотношение сторон : 2, 35: 1
    Режим частоты кадров : Постоянный
    Частота кадров : 23, 976 (24000/1001) кадра/сек
    Цветовое пространство : YUV
    Субдискретизация насыщенности : 4: 2: 0
    Битовая глубина : 10 бит
    Бит/(Пиксели*Кадры) : 0.183
    Размер потока : 1, 80 Гбайт (84%)
    Default : Да
    Forced : Нет
    Цветовой диапазон : Full
    ENCODING_INFO : H264 HEVC NVENC VBR 2000kbps HQ
    Аудио #1
    Идентификатор : 2
    Формат : AC-3
    Формат/Информация : Audio Coding 3
    Параметр Endianness формата : Big
    Идентификатор кодека : A_AC3
    Продолжительность : 2 ч. 11 м.
    Вид битрейта : Постоянный
    Битрейт : 160 Кбит/сек
    Каналы : 2 канала
    Расположение каналов : Front: L R
    Частота : 48, 0 КГц
    Частота кадров : 31, 250 кадров/сек (1536 SPF)
    Битовая глубина : 16 бит
    Метод сжатия : С потерями
    Размер потока : 150 Мбайт (7%)
    ServiceKind/String : Complete Main
    Default : Да
    Forced : Нет
    ENCODING_INFO : AC3 AC3 CBR 160kbps
    Аудио #2
    Идентификатор : 3
    Формат : AC-3
    Формат/Информация : Audio Coding 3
    Параметр Endianness формата : Big
    Идентификатор кодека : A_AC3
    Продолжительность : 2 ч. 11 м.
    Вид битрейта : Постоянный
    Битрейт : 160 Кбит/сек
    Каналы : 2 канала
    Расположение каналов : Front: L R
    Частота : 48, 0 КГц
    Частота кадров : 31, 250 кадров/сек (1536 SPF)
    Битовая глубина : 16 бит
    Метод сжатия : С потерями
    Размер потока : 150 Мбайт (7%)
    ServiceKind/String : Complete Main
    Default : Нет
    Forced : Нет
    ENCODING_INFO : DTS-HD MA AC3 CBR 160kbps
    Текст #1
    Идентификатор : 4
    Формат : UTF-8
    Идентификатор кодека : S_TEXT/UTF8
    Идентификатор кодека/Информация : UTF-8 Plain Text
    Язык : English
    Default : Да
    Forced : Нет
    ENCODING_INFO : SUBRIP COPY Быстрое
    Текст #2
    Идентификатор : 5
    Формат : UTF-8
    Идентификатор кодека : S_TEXT/UTF8
    Идентификатор кодека/Информация : UTF-8 Plain Text
    Язык : English
    Default : Нет
    Forced : Нет
    ENCODING_INFO : SUBRIP COPY Быстрое
    Меню
    00: 00: 00.000 : : Глава 1
    00: 05: 00.000 : : Глава 2
    00: 10: 00.000 : : Глава 3
    00: 15: 00.000 : : Глава 4
    00: 20: 00.000 : : Глава 5
    00: 25: 00.000 : : Глава 6
    00: 30: 00.000 : : Глава 7
    00: 35: 00.000 : : Глава 8
    00: 40: 00.000 : : Глава 9
    00: 45: 00.000 : : Глава 10
    00: 50: 00.000 : : Глава 11
    00: 55: 00.000 : : Глава 12
    01: 00: 00.000 : : Глава 13
    01: 05: 00.000 : : Глава 14
    01: 10: 00.000 : : Глава 15
    01: 15: 00.000 : : Глава 16
    01: 20: 00.000 : : Глава 17
    01: 25: 00.000 : : Глава 18
    01: 30: 00.000 : : Глава 19
    01: 35: 00.000 : : Глава 20
    01: 40: 00.000 : : Глава 21
    01: 45: 00.000 : : Глава 22
    01: 50: 00.000 : : Глава 23
    01: 55: 00.000 : : Глава 24
    02: 00: 00.000 : : Глава 25
    02: 05: 00.000 : : Глава 26

    Скриншоты для ознакомления
    /url

    Все одноименные релизы в Клубе
    Время раздачи: 19 - 23 (до появления первых 3-5 скачавших)

    Онлайн видео Мидуэй



    Мидуэй / Midway (1976) HDRip [H.265] [10-bit] торрент скачать бесплатно
    Рейтинг →
     (голосов: 1, оценка 3/5, голосовать можно 1 раз )

    Другие торренты по теме:

  • Мидуэй / Midway (2019) BDRip [H.264 / 720p-LQ]
  • Мидуэй / Midway (2019) BDRip [H.264 / 1080p-LQ] [hand made 16:9]
  • Мидуэй / Midway (1976) BDRip [H.264 / 720p-LQ] скачать через торрент бесплатно
  • Мидуэй / Midway (2019) CAMRip [MVO] [AD]
  • Мидуэй / Midway (2019) CAMRip [H.264 / 720p-LQ]
  • Мидуэй / Midway (2019) WEBRip [H.264 / 1080p-LQ] [Line]
  • Мидуэй / Midway (2019) WEB-DLRip [H.265] [10-bit] [Line]
  • Мидуэй / Midway (2019) BDRip [H.264 / 1080p] [EN / EN Sub] [PR]


    • Комментарии (0):

      Информация

      Информация

        Посетители, находящиеся в группе Гости, не могут оставлять комментарии в данной новости.

        ↓ Меню




        ↓ Опрос

        Вы добавили сайт в закладки?
        Да
        Нет


        Популярное