.
Авторизация | Регистрация
bitok.xyz
Торрент скачать бесплатно Фильмы торрент скачать Самба Траоре / Samba Traore (1992) DVDRip [VO] торрент скачать бесплатно


    Самба Траоре / Samba Traore (1992) DVDRip [VO] торрент скачать бесплатно

    Дата: 27-01-2020, 05:00 | .torrent скачали: 0

    Самба Траоре / Samba Traore (1992) DVDRip [VO]Производство: Буркина-Фасо, Франция, Швейцария/Films A2, Films de L\'Avenir, Les Films de l\'Avenir
    Жанр: Драма
    Режиссер: Идрисса Уэдраого

    Актеры
    Бакари Сангаре, Мариам Каба, Abdoulaye Komboudri, Ирена Тассембедо, Moumouni Campaoré, Сибиду Уэдраого, Krin Casimir Traoré, Firmine Coulebaly, Hippolyte Wangrawa

    Описание

    Фильм описывает печальную судьбу потерявшего в городе нравственные ориентиры молодого африканца, который после разбойного нападения на станцию техобслуживания скрылся в родной деревне и, обретя на короткое время дружбу, любовь и человеческое к себе отношение, все-таки не смог избежать роковой расплаты за свое криминальное прошлое.

    Продолжительность: 01: 21: 49
    Качество видео: DVDRip
    Перевод: Одноголосый любительский (Олег Воротилин)
    Субтитры: Английские, Французские, Немецкие (отдельными файлами)
    Видео: DivX 5, 688x416, ~2351 Kbps
    Аудио: AC3, 2 ch, 192 Kbps - Русский (VO)
    General
    Complete name : /media/win/TORRENT/UPLOAD_TORRENTS/Самба Траоре -1992- Samba Traore DVDRip ЛО/CaM6a_Tpa0pe_1992.DVDRip.avi
    Format : AVI
    Format/Info : Audio Video Interleave
    File size : 1.46 GiB
    Duration : 1 h 21 min
    Overall bit rate : 2 553 kb/s
    Writing application : VirtualDubMod 1.5.10.2 (build 2542/release)
    Writing library : VirtualDubMod build 2542/release
    Video
    ID : 0
    Format : MPEG-4 Visual
    Format profile : Advanced Simple@L5
    Format settings : BVOP2
    Format settings, BVOP : 2
    Format settings, QPel : No
    Format settings, GMC : No warppoints
    Format settings, Matrix : Default (MPEG)
    Codec ID : DX50
    Codec ID/Hint : DivX 5
    Duration : 1 h 21 min
    Bit rate : 2 351 kb/s
    Width : 688 pixels
    Height : 416 pixels
    Display aspect ratio : 5: 3
    Frame rate : 25.000 FPS
    Color space : YUV
    Chroma subsampling : 4: 2: 0
    Bit depth : 8 bits
    Scan type : Progressive
    Compression mode : Lossy
    Bits/(Pixel*Frame) : 0.329
    Stream size : 1.34 GiB (92%)
    Writing library : XviD 1.2.1 (UTC 2008-12-04)
    Audio
    ID : 1
    Format : AC-3
    Format/Info : Audio Coding 3
    Commercial name : Dolby Digital
    Codec ID : 2000
    Duration : 1 h 21 min
    Bit rate mode : Constant
    Bit rate : 192 kb/s
    Channel(s) : 2 channels
    Channel layout : L R
    Sampling rate : 48.0 kHz
    Frame rate : 31.250 FPS (1536 SPF)
    Compression mode : Lossy
    Stream size : 112 MiB (8%)
    Alignment : Split across interleaves
    Interleave, duration : 40 ms (1.00 video frame)
    Interleave, preload duration : 500 ms
    Service kind : Complete Main
    General
    Complete name : /media/win/TORRENT/UPLOAD_TORRENTS/Самба Траоре -1992- Samba Traore DVDRip ЛО/Samba.Traore.ENG.srt
    Format : SubRip
    File size : 31.9 KiB
    Text
    Format : SubRip
    Compression mode : Lossless
    General
    Complete name : /media/win/TORRENT/UPLOAD_TORRENTS/Самба Траоре -1992- Samba Traore DVDRip ЛО/Samba.Traore.FR.srt
    Format : SubRip
    File size : 37.3 KiB
    Text
    Format : SubRip
    Compression mode : Lossless
    General
    Complete name : /media/win/TORRENT/UPLOAD_TORRENTS/Самба Траоре -1992- Samba Traore DVDRip ЛО/Samba.Traore.GER.avi.srt
    Format : SubRip
    File size : 36.9 KiB
    Text
    Format : SubRip
    Compression mode : Lossless


    Онлайн видео Самба Траоре



    Самба Траоре / Samba Traore (1992) DVDRip [VO] торрент скачать бесплатно
    Рейтинг →
     (голосов: 1, оценка 3/5, голосовать можно 1 раз )

    Другие торренты по теме:

  • Самба / Samba (2014) BDRip [720p] [Fr] скачать через торрент бесплатно
  • Самба / Samba (2014) HDRip [576p] iPad [Line] скачать через торрент бесплатно
  • Самба / Samba (2014) BDRip [720p] ATV скачать через торрент бесплатно
  • Самба / Samba (2014) BDRip [1080p] ATV скачать через торрент бесплатно
  • Самба / Samba (2014) BDRip [H.264 / 1080p] скачать через торрент бесплатно
  • Самба / Samba (2014) AC3 5.1 скачать через торрент бесплатно
  • Самба / Samba (2014) BDRemux [H.264 / 1080p] [RUS Transfer]


    • Комментарии (0):

      Информация

      Информация

        Посетители, находящиеся в группе Гости, не могут оставлять комментарии в данной новости.

        ↓ Меню




        ↓ Опрос

        Вы добавили сайт в закладки?
        Да
        Нет


        Популярное