ВАЖНО! Сайт скоро заблокируют! Подписывайся на наш канал в Telegram https://t.me/torrentok и получи доступ к торрентам без ограничений!
.
Авторизация | Регистрация
bitok.xyz
Торрент скачать бесплатно Фильмы торрент скачать Следователь Файяр по прозвищу Шериф / Le Juge Fayard dit Le Sheriff (1976) HDTVRip [H.264] торрент скачать бесплатно


    Следователь Файяр по прозвищу Шериф / Le Juge Fayard dit Le Sheriff (1976) HDTVRip [H.264] торрент скачать бесплатно

    Дата: 27-01-2020, 05:00 | .torrent скачали: 0

    Следователь Файяр по прозвищу Шериф / Le Juge Fayard dit Le Sheriff (1976) HDTVRip [H.264]Производство: Франция/Action Films, Filmédis, Société Française de Production (SFP)
    Жанр: Драма, Криминал
    Режиссер: Ив Буассе
    Продюсер: Лиз Файоль, Ив Гассе, Ив Пейро

    Актеры
    Патрик Девэр, Аврора Клеман, Филипп Леотар, Мишель Оклер, Жан Буиз, Жан-Марк Тибо, Даниэль Ивернель, Жан-Марк Бори, Анри Гарсен, Жак Списсер

    Описание

    Полицейский детектив, рассказывающий о молодом полицейском следователе-идеалисте Файаре и о его обречённом противоборстве с сильными мира сего — прогнившими судьями, политиками и террористическими организациями.

    Релиз от: Охрана (NNMCLUB)
    Продолжительность: 01: 46: 00
    Качество видео: HDTVRip
    Перевод: Дублированный, многоголосый профессиональный
    Субтитры: Английские
    Видео: AVC/H.264, 1024x608, ~2750 Kbps
    Аудио 1: AC3, 2 ch, 192 Kbps, 48.0 kHz – Русский Dub, киностудия Ленфильм
    Аудио 2: AC3, 2 ch, 192 Kbps, 48.0 kHz – Русский MVO, Петербург 5-й канал
    Аудио 3: AC3, 2 ch, 192 Kbps, 48.0 kHz – Французский
    Общее
    Уникальный идентификатор : 231677800214944209341822074277551647212 (0xAE4B8573279F848EA23B78218547A9EC)
    Полное имя : B: DownloadsСледователь Файяр по прозвищу Шериф. 1976. NNMCLUB.mkv
    Формат : Matroska
    Версия формата : Version 4/Version 2
    Размер файла : 2, 46 Гбайт
    Продолжительность : 1 ч. 46 м.
    Общий поток : 3328 Кбит/сек
    Дата кодирования : UTC 2020-01-22 22: 19: 32
    Программа кодирования : mkvmerge v7.9.0 (\'Birds\') 64bit
    Библиотека кодирования : libebml v1.3.1 + libmatroska v1.4.2
    Видео
    Идентификатор : 1
    Формат : AVC
    Формат/Информация : Advanced Video Codec
    Профиль формата : High@L4.1
    Настройки формата : CABAC/12 Ref Frames
    Параметр CABAC формата : Да
    Параметр RefFrames формата : 12 кадров
    Идентификатор кодека : V_MPEG4/ISO/AVC
    Продолжительность : 1 ч. 46 м.
    Битрейт : 2750 Кбит/сек
    Ширина : 1024 пикселя
    Высота : 608 пикселей
    Соотношение сторон : 5: 3
    Режим частоты кадров : Постоянный
    Частота кадров : 25, 000 кадров/сек
    Цветовое пространство : YUV
    Субдискретизация насыщенности : 4: 2: 0
    Битовая глубина : 8 бит
    Тип развёртки : Прогрессивная
    Бит/(Пиксели*Кадры) : 0.177
    Размер потока : 2, 04 Гбайт (83%)
    Заголовок : Le Juge Fayard dit Le Shériff
    Библиотека кодирования : x264 core 146 r2538 121396c
    Настройки программы : cabac=1/ref=12/deblock=1: -1: -1/analyse=0x3: 0x113/me=umh/subme=10/psy=1/psy_rd=1.00: 0.10/mixed_ref=1/me_range=32/chroma_me=1/trellis=2/8x8dct=1/cqm=0/deadzone=21, 11/fast_pskip=0/chroma_qp_offset=-3/threads=6/lookahead_threads=1/sliced_threads=0/nr=0/decimate=0/interlaced=0/bluray_compat=0/constrained_intra=0/bframes=7/b_pyramid=2/b_adapt=2/b_bias=0/direct=3/weightb=1/open_gop=0/weightp=2/keyint=250/keyint_min=25/scenecut=40/intra_refresh=0/rc_lookahead=60/rc=2pass/mbtree=1/bitrate=2750/ratetol=1.0/qcomp=0.60/qpmin=0/qpmax=69/qpstep=4/cplxblur=20.0/qblur=0.5/vbv_maxrate=14000/vbv_bufsize=14000/nal_hrd=none/filler=0/ip_ratio=1.40/aq=1: 1.00
    Язык : French
    Default : Да
    Forced : Нет
    Аудио #1
    Идентификатор : 2
    Формат : AC-3
    Формат/Информация : Audio Coding 3
    Идентификатор кодека : A_AC3
    Продолжительность : 1 ч. 46 м.
    Вид битрейта : Постоянный
    Битрейт : 192 Кбит/сек
    Каналы : 2 канала
    Расположение каналов : Front: L R
    Частота : 48, 0 КГц
    Частота кадров : 31, 250 кадров/сек (1536 SPF)
    Битовая глубина : 16 бит
    Метод сжатия : С потерями
    Размер потока : 146 Мбайт (6%)
    Заголовок : Дублированный
    Язык : Russian
    ServiceKind/String : Complete Main
    Default : Да
    Forced : Нет
    Аудио #2
    Идентификатор : 3
    Формат : AC-3
    Формат/Информация : Audio Coding 3
    Идентификатор кодека : A_AC3
    Продолжительность : 1 ч. 45 м.
    Вид битрейта : Постоянный
    Битрейт : 192 Кбит/сек
    Каналы : 2 канала
    Расположение каналов : Front: L R
    Частота : 48, 0 КГц
    Частота кадров : 31, 250 кадров/сек (1536 SPF)
    Битовая глубина : 16 бит
    Метод сжатия : С потерями
    Размер потока : 146 Мбайт (6%)
    Заголовок : Многоголосый закадровый, Петербург 5 канал
    Язык : Russian
    ServiceKind/String : Complete Main
    Default : Нет
    Forced : Нет
    Аудио #3
    Идентификатор : 4
    Формат : AC-3
    Формат/Информация : Audio Coding 3
    Идентификатор кодека : A_AC3
    Продолжительность : 1 ч. 46 м.
    Вид битрейта : Постоянный
    Битрейт : 192 Кбит/сек
    Каналы : 2 канала
    Расположение каналов : Front: L R
    Частота : 48, 0 КГц
    Частота кадров : 31, 250 кадров/сек (1536 SPF)
    Битовая глубина : 16 бит
    Метод сжатия : С потерями
    Размер потока : 146 Мбайт (6%)
    Заголовок : Французский
    Язык : French
    ServiceKind/String : Complete Main
    Default : Нет
    Forced : Нет
    Текст
    Идентификатор : 5
    Формат : UTF-8
    Идентификатор кодека : S_TEXT/UTF8
    Идентификатор кодека/Информация : UTF-8 Plain Text
    Продолжительность : 1 ч. 45 м.
    Битрейт : 73 бит/сек
    ElementCount : 1255
    Размер потока : 57, 0 Кбайт (0%)
    Заголовок : full
    Язык : English
    Default : Нет
    Forced : Нет

    Скриншоты для ознакомления




    Все одноименные релизы в Клубе
    Время раздачи: с 13: 00 до 01: 00 МСК, выходные круглосуточно (до появления первых 3-5 скачавших)

    Онлайн видео Следователь Файяр по прозвищу Шериф



    Следователь Файяр по прозвищу Шериф / Le Juge Fayard dit Le Sheriff (1976) HDTVRip [H.264] торрент скачать бесплатно
    Рейтинг →
     (голосов: 1, оценка 5/5, голосовать можно 1 раз )

    Другие торренты по теме:

  • Профессия - следователь (1982) DVDRip [H.264] (серии 1-5 из 5) скачать через торрент бесплатно
  • Безумный следователь / Mad Detective / Sun taam (2007) BDRip [H.264 / 720p]
  • Следователь Тихонов (2015) SATRip [H.264] (1 серия из 20) (Обновляемая)
  • Следователь Тихонов (2016) HDTVRip (серии 1-3 из 20) (обновляемая)
  • Следователь Тихонов (2016) HDTV [H.264 / 1080i] (серии 1-3 из 20) (обновляемая)
  • Следователь Тихонов (2016) HDTVRip [H.264 / 720p-LQ] (серии 1-3 из 20) (обновляемая)
  • Следователь Тихонов (2016) SATRip (серия 1-6 из 20) Обновляемая
  • Следователь Тихонов (2016) WEB-DLRip (серии 1-8 из 20) (обновляемая)


    • Комментарии (0):

      Информация

      Информация

        Посетители, находящиеся в группе Гости, не могут оставлять комментарии в данной новости.

        ↓ Меню




        Популярное