.
Авторизация | Регистрация
bitok.xyz
Торрент скачать бесплатно Фильмы торрент скачать Все мужчины - братья: Кровь леопарда / Shui hu zhuan zhi ying xiong ben se / All Men Are Brothers - Blood of the Leopard (1993) DVDRip [VO] торрент скачать бесплатно


    Все мужчины - братья: Кровь леопарда / Shui hu zhuan zhi ying xiong ben se / All Men Are Brothers - Blood of the Leopard (1993) DVDRip [VO] торрент скачать бесплатно

    Дата: 27-01-2020, 05:00 | .torrent скачали: 0

    Все мужчины - братья: Кровь леопарда / Shui hu zhuan zhi ying xiong ben se / All Men Are Brothers - Blood of the Leopard (1993) DVDRip [VO]Производство: Гонконг, Китай, China Film Co-Production Corporation, HK Film Entertainment, Zhu Jiang Films
    Жанр: Боевик, драма
    Режиссер: Билли Чан

    Актеры
    Вэй Лам, Чин Ван Лау, Шун Лау, Тони Люн Ка-фай, Лап-Ман Тан, Элвис Цуй, Остин Вэй, Джои Вон, У Ма

    Описание

    Действие разворачивается в средневековом Китае вокруг личности Лин Чеунга (Тони Леунг Ка Фай), начальника императорской охраны, который в паутине лжи и обмана, плетущейся за кулисами большой власти, ухитряется оставаться чистеньким. Он живет с красавицей женой (Джой Вонг) и великолепно знает боевые искусства. Лин знакомится и приводит в дом взбаламошного монаха Фу (Цуй Кам Конг), который боготворит Лина, и в конце концов они становятся братьями. Однако на жену Лина положил глаз глупый и дохлый сынок губернатора, и в конце концов Лина подставляют, что и приводит к финальной серии отлично поставленyых схваток.

    Релиз от: Rip by vitolinform
    Продолжительность: 01: 38: 39
    Качество видео: DVDRip
    Перевод: Одноголосый любительский (Виктор Береговых)
    Субтитры: Английские - отдельными файлами
    Видео: Xvid, 704x400, ~1533 kbps
    Аудио 1: AC3, 2 ch, 192 Кbps | Русский (VO В. Береговых)
    Аудио 2: AC3, 6 ch, 384 Кbps | Китайский
    Vse.mugchinii.Bratya.1993.DVDRipVse.mugchinii.Bratya.1993.DVDRip.avi
    Формат : AVI
    Формат/Информация : Audio Video Interleave
    Размер файла : 1, 46 Гбайт
    Продолжительность : 1 ч. 38 м.
    Общий поток : 2124 Кбит/сек
    Название фильма : Все мужчины - братья: Кровь леопарда/Sui woo juen ji ying hung boon sik (1993) DVDRip
    Режиссёр : Билли Чан/Billy Chan
    Жанр : Боевик, драма
    Программа кодирования : VirtualDubMod 1.5.10.2 (build 2542/release)
    Формат оригинала/Имя : Художественный фильм
    Авторское право : Гонконг, Китай, China Film Co-Production Corporation, HK Film Entertainment, Zhu Jiang Films
    Примечание : Rip by vitolinform
    Видео
    Идентификатор : 0
    Формат : MPEG-4 Visual
    Профиль формата : Advanced Simple@L5
    Настройки формата : BVOP2
    Параметр BVOP формата : 2
    Параметр QPel формата : Нет
    Параметр GMC формата : Без точки перехода
    Параметр матрицы формата : Default (MPEG)
    Идентификатор кодека : XVID
    Идентификатор кодека/Подсказка : XviD
    Продолжительность : 1 ч. 38 м.
    Битрейт : 1533 Кбит/сек
    Ширина : 704 пикселя
    Высота : 400 пикселей
    Соотношение сторон : 16: 9
    Частота кадров : 23, 976 (24000/1001) кадра/сек
    Цветовое пространство : YUV
    Субдискретизация насыщенности : 4: 2: 0
    Битовая глубина : 8 бит
    Тип развёртки : Прогрессивная
    Метод сжатия : С потерями
    Бит/(Пиксели*Кадры) : 0.227
    Размер потока : 1, 06 Гбайт (72%)
    Библиотека кодирования : XviD 67
    Аудио #1
    Идентификатор : 1
    Формат : AC-3
    Формат/Информация : Audio Coding 3
    Коммерческое название : Dolby Digital
    Идентификатор кодека : 2000
    Продолжительность : 1 ч. 38 м.
    Вид битрейта : Постоянный
    Битрейт : 192 Кбит/сек
    Каналы : 2 канала
    ChannelLayout : L R
    Частота : 48, 0 КГц
    Частота кадров : 31, 250 кадров/сек (1536 SPF)
    Битовая глубина : 16 бит
    Метод сжатия : С потерями
    Размер потока : 136 Мбайт (9%)
    Выравнивание : Разделение по промежуткам
    Продолжительность промежутка : 42 мс. (1, 00 видеокадр)
    Время предзагрузки промежутка : 500 мс.
    Заголовок : Russian (VO Виктор Береговых)
    ServiceKind/String : Complete Main
    Аудио #2
    Идентификатор : 2
    Формат : AC-3
    Формат/Информация : Audio Coding 3
    Коммерческое название : Dolby Digital
    Идентификатор кодека : 2000
    Продолжительность : 1 ч. 38 м.
    Вид битрейта : Постоянный
    Битрейт : 384 Кбит/сек
    Каналы : 6 каналов
    ChannelLayout : L R C LFE Ls Rs
    Частота : 48, 0 КГц
    Частота кадров : 31, 250 кадров/сек (1536 SPF)
    Битовая глубина : 16 бит
    Метод сжатия : С потерями
    Размер потока : 271 Мбайт (18%)
    Выравнивание : Разделение по промежуткам
    Продолжительность промежутка : 42 мс. (1, 00 видеокадр)
    Время предзагрузки промежутка : 500 мс.
    Заголовок : Chinese
    ServiceKind/String : Complete Main


    Онлайн видео Все мужчины - братья: Кровь леопарда



    Все мужчины - братья: Кровь леопарда / Shui hu zhuan zhi ying xiong ben se / All Men Are Brothers - Blood of the Leopard (1993) DVDRip [VO] торрент скачать бесплатно
    Рейтинг →
     (голосов: 1, оценка 5/5, голосовать можно 1 раз )

    Другие торренты по теме:

  • Все мужчины - братья / Dong kai ji / All Men Are Brothers (1975) HDRip [AVO]


    • Комментарии (0):

      Информация

      Информация

        Посетители, находящиеся в группе Гости, не могут оставлять комментарии в данной новости.

        ↓ Меню




        ↓ Опрос

        Вы добавили сайт в закладки?
        Да
        Нет


        Популярное