.
Авторизация | Регистрация
bitok.xyz
Торрент скачать бесплатно Фильмы торрент скачать Все мужчины - братья / Dong kai ji / All Men Are Brothers (1975) HDRip [AVO] торрент скачать бесплатно


    Все мужчины - братья / Dong kai ji / All Men Are Brothers (1975) HDRip [AVO] торрент скачать бесплатно

    Дата: 27-01-2020, 05:00 | .torrent скачали: 0

    Все мужчины - братья / Dong kai ji / All Men Are Brothers (1975) HDRip [AVO]Производство: Гонконг, Shaw Brothers
    Жанр: Боевые искусства, приключения
    Режиссер: Че Чанг, Ма Ву
    Продюсер: Ран Ми Шоу

    Актеры
    Майкл Чан, Янг Чжан, Чэнь Чуань, Фенг Чен Чен, Чэнь Куаньтай, Ти-ко Чен, Ли Чэн, Дэвид Чиан, Фенг Чин

    Описание

    Экранизация нескольких глав из знаменитого шедевра китайской литературы Речные заводи, основанного на реальных исторических событиях. Ян Цин (Дэвид Чианг) добивается аудиенции у императора, чтобы попросить его о помиловании 108 воинов, входящих в незаконную дружину Лян Шан – правитель соглашается объявить им амнистию, если те подавят восстание, поднятое против его власти генералом Фанг Ла. Войска Фан Ла закрепились в неприступной крепости на воде и если Ян Цин и его собратья по оружию хотят занять ее, им необходимо действовать не только снаружи, но и изнутри.

    Релиз от: Rip by vitolinform
    Продолжительность: 01: 41: 40
    Качество видео: HDRip
    Перевод: Авторский (Андрей Дольский)
    Субтитры: Русские, английские - отдельными файлами
    Видео: Xvid, 720x304, ~1605 kbps
    Аудио 1: AC3, 6 ch, 448 Кbps | Русский, (AVO Андрей Дольский)
    Аудио 2: AC3, 6 ch, 448 Кbps | Английский (отдельным файлом)
    Аудио 3: AC3, 6 ch, 448 Кbps | Китайский (отдельным файлом)
    Vse.mugchinii.Bratya.1975.HDRipVse.mugchinii.Bratya.1975.HDRip.avi
    Формат : AVI
    Формат/Информация : Audio Video Interleave
    Размер файла : 1, 46 Гбайт
    Продолжительность : 1 ч. 41 м.
    Общий поток : 2062 Кбит/сек
    Название фильма : Все мужчины – братья/Dong kai ji/All Men Are Brothers (1975) HDRip
    Режиссёр : Чжан Чэ/Chang Cheh, У Ма/Wu Ma
    Жанр : Боевик, приключения
    Программа кодирования : VirtualDubMod 1.5.10.2 (build 2542/release)
    Формат оригинала/Имя : Художественный фильм
    Авторское право : Гонконг, Shaw Brothers
    Примечание : Rip by vitolinform
    Видео
    Идентификатор : 0
    Формат : MPEG-4 Visual
    Профиль формата : Advanced Simple@L5
    Настройки формата : BVOP2
    Параметр BVOP формата : 2
    Параметр QPel формата : Нет
    Параметр GMC формата : Без точки перехода
    Параметр матрицы формата : Default (MPEG)
    Идентификатор кодека : XVID
    Идентификатор кодека/Подсказка : XviD
    Продолжительность : 1 ч. 41 м.
    Битрейт : 1605 Кбит/сек
    Ширина : 720 пикселей
    Высота : 304 пикселя
    Соотношение сторон : 2, 35: 1
    Частота кадров : 23, 976 (24000/1001) кадра/сек
    Цветовое пространство : YUV
    Субдискретизация насыщенности : 4: 2: 0
    Битовая глубина : 8 бит
    Тип развёртки : Прогрессивная
    Метод сжатия : С потерями
    Бит/(Пиксели*Кадры) : 0.306
    Размер потока : 1, 14 Гбайт (78%)
    Библиотека кодирования : XviD 67
    Аудио
    Идентификатор : 1
    Формат : AC-3
    Формат/Информация : Audio Coding 3
    Коммерческое название : Dolby Digital
    Идентификатор кодека : 2000
    Продолжительность : 1 ч. 41 м.
    Вид битрейта : Постоянный
    Битрейт : 448 Кбит/сек
    Каналы : 6 каналов
    ChannelLayout : L R C LFE Ls Rs
    Частота : 48, 0 КГц
    Частота кадров : 31, 250 кадров/сек (1536 SPF)
    Битовая глубина : 16 бит
    Метод сжатия : С потерями
    Размер потока : 326 Мбайт (22%)
    Выравнивание : Разделение по промежуткам
    Продолжительность промежутка : 42 мс. (1, 00 видеокадр)
    Время предзагрузки промежутка : 500 мс.
    Заголовок : Russian (AVO Андрей Дольский)
    ServiceKind/String : Complete Main
    ====================================================
    Vse.mugchinii.Bratya.1975.HDRipVse.mugchinii.Bratya.1975.HDRip_eng.ac3
    Формат : AC-3
    Формат/Информация : Audio Coding 3
    Коммерческое название : Dolby Digital
    Размер файла : 326 Мбайт
    Продолжительность : 1 ч. 41 м.
    Режим общего битрейта : Постоянный
    Общий поток : 448 Кбит/сек
    Аудио
    Формат : AC-3
    Формат/Информация : Audio Coding 3
    Коммерческое название : Dolby Digital
    Продолжительность : 1 ч. 41 м.
    Вид битрейта : Постоянный
    Битрейт : 448 Кбит/сек
    Каналы : 6 каналов
    ChannelLayout : L R C LFE Ls Rs
    Частота : 48, 0 КГц
    Частота кадров : 31, 250 кадров/сек (1536 SPF)
    Битовая глубина : 16 бит
    Метод сжатия : С потерями
    Размер потока : 326 Мбайт (100%)
    ServiceKind/String : Complete Main
    ============================================
    Vse.mugchinii.Bratya.1975.HDRipVse.mugchinii.Bratya.1975.HDRip_chin.ac3
    Формат : AC-3
    Формат/Информация : Audio Coding 3
    Коммерческое название : Dolby Digital
    Размер файла : 326 Мбайт
    Продолжительность : 1 ч. 41 м.
    Режим общего битрейта : Постоянный
    Общий поток : 448 Кбит/сек
    Аудио
    Формат : AC-3
    Формат/Информация : Audio Coding 3
    Коммерческое название : Dolby Digital
    Продолжительность : 1 ч. 41 м.
    Вид битрейта : Постоянный
    Битрейт : 448 Кбит/сек
    Каналы : 6 каналов
    ChannelLayout : L R C LFE Ls Rs
    Частота : 48, 0 КГц
    Частота кадров : 31, 250 кадров/сек (1536 SPF)
    Битовая глубина : 16 бит
    Метод сжатия : С потерями
    Размер потока : 326 Мбайт (100%)
    ServiceKind/String : Complete Main

    Скриншоты для ознакомления




    Все одноименные релизы в Клубе
    Время раздачи: 24/7 (мультитрекерная раздача) (до появления первых 3-5 скачавших)

    Онлайн видео Все мужчины - братья



    Все мужчины - братья / Dong kai ji / All Men Are Brothers (1975) HDRip [AVO] торрент скачать бесплатно
    Рейтинг →
     (голосов: 1, оценка 3/5, голосовать можно 1 раз )

    Другие торренты по теме:

  • Все мужчины - братья: Кровь леопарда / Shui hu zhuan zhi ying xiong ben se / All Men Are Brothers - Blood of the Leopard (1993) DVDRip [VO]


    • Комментарии (0):

      Информация

      Информация

        Посетители, находящиеся в группе Гости, не могут оставлять комментарии в данной новости.

        ↓ Меню




        ↓ Опрос

        Вы добавили сайт в закладки?
        Да
        Нет


        Популярное