.
Авторизация | Регистрация
bitok.xyz
Торрент скачать бесплатно Фильмы торрент скачать Фатальная ошибка / Grijpstra & De Gier (1979) DVDRip [H.264] торрент скачать бесплатно


    Фатальная ошибка / Grijpstra & De Gier (1979) DVDRip [H.264] торрент скачать бесплатно

    Дата: 27-01-2020, 05:00 | .torrent скачали: 2

    Фатальная ошибка / Grijpstra & De Gier (1979) DVDRip [H.264]Производство: Нидерланды/Rob Houwer Film, VNF
    Жанр: Триллер, Комедия, Криминал
    Режиссер: Вим Верстапен
    Продюсер: Роб Хаувер

    Актеры
    Рейк де Гойер, Рутгер Хауэр, Виллеке ван Аммельрой, Дональд Джонс, Марина Де Грааф, Фредерик де Гроот, Ян Ретель, Ганс Кройсет, Марьян Берк

    Описание

    Двое полицейских расследуют самоубийства, связанные с наркотиками. Обычный детектив с набором необходимых для жанра составляющих, действие которого неспешно тянется в Астердаме, где гашиш и травка легальны.

    Возраст: 18+ (зрителям, достигшим 18 лет. запрещено для детей)
    Релиз от: Охрана (NNMCLUB)
    Продолжительность: 01: 20: 44
    Качество видео: DVDRip
    Перевод: Многоголосый профессиональный, Фортуна Фильм
    Субтитры: Отсутствуют
    Видео: AVC/H.264, 720x448, ~2047 Kbps
    Аудио 1: AC3, 2 ch, 192 Kbps, 48.0 kHz – Русский
    Аудио 2: AC3, 2 ch, 192 Kbps, 48.0 kHz – Нидерландский
    Общее
    Уникальный идентификатор : 208728611839973741132246413575072156297 (0x9D07AB1AE7DC9FC78DC2C48703B28A89)
    Полное имя : B: DownloadsФатальная ошибка. 1979. NNMCLUB.mkv
    Формат : Matroska
    Версия формата : Version 4/Version 2
    Размер файла : 1, 37 Гбайт
    Продолжительность : 1 ч. 20 м.
    Общий поток : 2433 Кбит/сек
    Дата кодирования : UTC 2020-01-19 10: 41: 05
    Программа кодирования : mkvmerge v7.9.0 (\'Birds\') 64bit
    Библиотека кодирования : libebml v1.3.1 + libmatroska v1.4.2
    Видео
    Идентификатор : 1
    Формат : AVC
    Формат/Информация : Advanced Video Codec
    Профиль формата : High@L4.1
    Настройки формата : CABAC/12 Ref Frames
    Параметр CABAC формата : Да
    Параметр RefFrames формата : 12 кадров
    Идентификатор кодека : V_MPEG4/ISO/AVC
    Продолжительность : 1 ч. 20 м.
    Битрейт : 2047 Кбит/сек
    Ширина : 720 пикселей
    Высота : 448 пикселей
    Соотношение сторон : 16: 10
    Режим частоты кадров : Постоянный
    Частота кадров : 25, 000 кадров/сек
    Цветовое пространство : YUV
    Субдискретизация насыщенности : 4: 2: 0
    Битовая глубина : 8 бит
    Тип развёртки : Прогрессивная
    Бит/(Пиксели*Кадры) : 0.254
    Размер потока : 1, 15 Гбайт (84%)
    Заголовок : Grijpstra De Gier
    Библиотека кодирования : x264 core 146 r2538 121396c
    Настройки программы : cabac=1/ref=12/deblock=1: -1: -1/analyse=0x3: 0x113/me=umh/subme=10/psy=1/psy_rd=1.00: 0.10/mixed_ref=1/me_range=32/chroma_me=1/trellis=2/8x8dct=1/cqm=0/deadzone=21, 11/fast_pskip=0/chroma_qp_offset=-3/threads=6/lookahead_threads=1/sliced_threads=0/nr=0/decimate=0/interlaced=0/bluray_compat=0/constrained_intra=0/bframes=7/b_pyramid=2/b_adapt=2/b_bias=0/direct=3/weightb=1/open_gop=0/weightp=2/keyint=250/keyint_min=25/scenecut=40/intra_refresh=0/rc_lookahead=60/rc=2pass/mbtree=1/bitrate=2047/ratetol=1.0/qcomp=0.60/qpmin=0/qpmax=69/qpstep=4/cplxblur=20.0/qblur=0.5/vbv_maxrate=14000/vbv_bufsize=14000/nal_hrd=none/filler=0/ip_ratio=1.40/aq=1: 1.00
    Язык : English
    Default : Да
    Forced : Нет
    Аудио #1
    Идентификатор : 2
    Формат : AC-3
    Формат/Информация : Audio Coding 3
    Идентификатор кодека : A_AC3
    Продолжительность : 1 ч. 20 м.
    Вид битрейта : Постоянный
    Битрейт : 192 Кбит/сек
    Каналы : 2 канала
    Расположение каналов : Front: L R
    Частота : 48, 0 КГц
    Частота кадров : 31, 250 кадров/сек (1536 SPF)
    Битовая глубина : 16 бит
    Метод сжатия : С потерями
    Размер потока : 111 Мбайт (8%)
    Заголовок : Многоголосый закадровый
    Язык : Russian
    ServiceKind/String : Complete Main
    Default : Да
    Forced : Нет
    Аудио #2
    Идентификатор : 3
    Формат : AC-3
    Формат/Информация : Audio Coding 3
    Идентификатор кодека : A_AC3
    Продолжительность : 1 ч. 20 м.
    Вид битрейта : Постоянный
    Битрейт : 192 Кбит/сек
    Каналы : 2 канала
    Расположение каналов : Front: L R
    Частота : 48, 0 КГц
    Частота кадров : 31, 250 кадров/сек (1536 SPF)
    Битовая глубина : 16 бит
    Метод сжатия : С потерями
    Размер потока : 111 Мбайт (8%)
    Заголовок : Нидерландский
    ServiceKind/String : Complete Main
    Default : Нет
    Forced : Нет

    Скриншоты для ознакомления




    Все одноименные релизы в Клубе
    Время раздачи: с 13: 00 до 01: 00 МСК, выходные круглосуточно (до появления первых 3-5 скачавших)

    Онлайн видео Фатальная ошибка



    Фатальная ошибка / Grijpstra & De Gier (1979) DVDRip [H.264] торрент скачать бесплатно
    Рейтинг →
     (голосов: 1, оценка 5/5, голосовать можно 1 раз )

    Другие торренты по теме:

  • Garou Densetsu / Fatal Fury / Фатальная ярость [1992 / 1993 / 1994, Movie + 2 OVA] DVDRip raw +eng
  • Фатальная встреча / Yeokrin / The Fatal Encounter (2014) BDRip [H.265 / 1080p] [10-bit] [VO]


    • Комментарии (0):

      Информация

      Информация

        Посетители, находящиеся в группе Гости, не могут оставлять комментарии в данной новости.

        ↓ Меню




        ↓ Опрос

        Вы добавили сайт в закладки?
        Да
        Нет


        Популярное