.
Авторизация | Регистрация
bitok.xyz
Торрент скачать бесплатно Фильмы торрент скачать Молот ведьм / Kladivo na carodejnice (1969) DVDRip [H.264] [AVO] торрент скачать бесплатно


    Молот ведьм / Kladivo na carodejnice (1969) DVDRip [H.264] [AVO] торрент скачать бесплатно

    Дата: 27-01-2020, 05:00 | .torrent скачали: 0

    Молот ведьм / Kladivo na carodejnice (1969) DVDRip [H.264] [AVO]Производство: Чехословакия/Filmove Studio Barrandov
    Жанр: Драма, история, ужасы
    Режиссер: Отакар Вавра

    Актеры
    Владимир Шмерал, Эло Романчик, Йосеф Кемпр, Соня Валентова, Бланка Валеска, Лола Скрбкова, Иржина Степничкова, Мари Надемлейнска, Мириам Канторкова, Эдуард Цупак

    Описание

    XVII век. Инквизиция держит в страхе Европу. И простой люд и знать верят, что повсюду обитают ведьмы. Для скорого суда и расправы над колдуньями по городам и селам разъезжают жестокие мракобесы-инквизиторы. Не гнушаясь изощренными пытками и обманом, они повсюду устраивают азартную охоту на ведьм. В страшных мучениях жены оговаривают мужей, дети - отцов, среди всеобщего страха целые семьи идут на костер, лишь немногие решаются выступить против карающей длани святой церкви. В своей борьбе они могут полагаться на Бога. Но услышит ли Господь молитвы тех, над кем инквизиция уже занесла кровавый топор?

    Возраст: 18+ (зрителям, достигшим 18 лет. запрещено для детей)
    Продолжительность: 01: 42: 23
    Качество видео: DVDRip
    Перевод: Авторский
    Субтитры: отсутствуют
    Видео: AVC/H.264, 704x304, ~1624 kbps
    Аудио: AC3, 6 ch, 384 kbps - Русский AVO (Ю.Сербин)
    Общее
    Уникальный идентификатор : 188506621271156423290468152670850629612 (0x8DD10DFE5680C4418264D3DF1C5BBFEC)
    Полное имя : F: -Молот ведьм. 1969Молот ведьм. 1969.mkv
    Формат : Matroska
    Версия формата : Version 4/Version 2
    Размер файла : 1, 44 Гбайт
    Продолжительность : 1 ч. 42 м.
    Общий поток : 2010 Кбит/сек
    Название фильма : Release for Topmost
    Дата кодирования : UTC 2020-01-17 07: 33: 39
    Программа кодирования : mkvmerge v6.2.0 (\'Promised Land\') built on Apr 28 2013 12: 22: 01
    Библиотека кодирования : libebml v1.3.0 + libmatroska v1.4.0
    Attachment : Yes
    Видео
    Идентификатор : 1
    Формат : AVC
    Формат/Информация : Advanced Video Codec
    Профиль формата : High@L4.1
    Параметр CABAC формата : Да
    Параметр ReFrames формата : 12 кадров
    Идентификатор кодека : V_MPEG4/ISO/AVC
    Продолжительность : 1 ч. 42 м.
    Битрейт : 1624 Кбит/сек
    Ширина : 704 пикселя
    Высота : 304 пикселя
    Соотношение сторон : 2, 35: 1
    Режим частоты кадров : Постоянный
    Частота кадров : 25, 000 кадров/сек
    Цветовое пространство : YUV
    Субдискретизация насыщенности : 4: 2: 0
    Битовая глубина : 8 бит
    Тип развёртки : Прогрессивная
    Бит/(Пиксели*Кадры) : 0.304
    Размер потока : 1, 13 Гбайт (79%)
    Заголовок : Молот ведьм. 1969 /Release for Topmost/
    Библиотека кодирования : x264 core 146 r2538 121396c
    Настройки программы : cabac=1/ref=12/deblock=1: -3: -3/analyse=0x3: 0x113/me=umh/subme=11/psy=1/psy_rd=1.00: 0.15/mixed_ref=1/me_range=32/chroma_me=1/trellis=2/8x8dct=1/cqm=0/deadzone=21, 11/fast_pskip=0/chroma_qp_offset=-3/threads=12/lookahead_threads=2/sliced_threads=0/nr=0/decimate=0/interlaced=0/bluray_compat=0/constrained_intra=0/bframes=8/b_pyramid=2/b_adapt=2/b_bias=0/direct=1/weightb=1/open_gop=0/weightp=2/keyint=240/keyint_min=23/scenecut=40/intra_refresh=0/rc_lookahead=40/rc=2pass/mbtree=0/bitrate=1624/ratetol=1.0/qcomp=0.60/qpmin=0/qpmax=69/qpstep=4/cplxblur=20.0/qblur=0.5/vbv_maxrate=14000/vbv_bufsize=14000/nal_hrd=none/filler=0/ip_ratio=1.40/pb_ratio=1.30/aq=1: 0.90
    Язык : Chechen
    Default : Да
    Forced : Нет
    Аудио
    Идентификатор : 2
    Формат : AC-3
    Формат/Информация : Audio Coding 3
    Расширение режима : CM (complete main)
    Параметр Endianness формата : Big
    Идентификатор кодека : A_AC3
    Продолжительность : 1 ч. 42 м.
    Вид битрейта : Постоянный
    Битрейт : 384 Кбит/сек
    Каналы : 6 каналов
    Расположение каналов : Front: L C R, Side: L R, LFE
    Частота : 48, 0 КГц
    Битовая глубина : 16 бит
    Метод сжатия : С потерями
    Размер потока : 281 Мбайт (19%)
    Язык : Russian
    Default : Да
    Forced : Нет

    Скриншоты для ознакомления




    Все одноименные релизы в Клубе
    Время раздачи: 24/7 до 5 скачавших (до появления первых 3-5 скачавших)

    Онлайн видео Молот ведьм



    Молот ведьм / Kladivo na carodejnice (1969) DVDRip [H.264] [AVO] торрент скачать бесплатно
    Рейтинг →
     (голосов: 1, оценка 3/5, голосовать можно 1 раз )

    Другие торренты по теме:

  • Константин Образцов | Молот ведьм (2015) [FB2] скачать через торрент бесплатно
  • Генрих Крамер, Якоб Шпренгер | Молот ведьм (Malleus Maleficarum) [Рукопись] (1490) [PDF] скачать через торрент бесплатно
  • Константин Образцов | Молот ведьм (2016) [MP3]


    • Комментарии (0):

      Информация

      Информация

        Посетители, находящиеся в группе Гости, не могут оставлять комментарии в данной новости.

        ↓ Меню




        ↓ Опрос

        Вы добавили сайт в закладки?
        Да
        Нет


        Популярное