.
Авторизация | Регистрация
bitok.xyz
Торрент скачать бесплатно Фильмы торрент скачать Каприз / Caprice (1967) BDRip [H.264] торрент скачать бесплатно


    Каприз / Caprice (1967) BDRip [H.264] торрент скачать бесплатно

    Дата: 27-01-2020, 05:00 | .torrent скачали: 0

    Каприз / Caprice (1967) BDRip [H.264]Производство: США/20th Century Fox Film Corporation, Melcher-Arcola Productions
    Жанр: Триллер, Комедия, Криминал
    Режиссер: Фрэнк Тэшлин
    Продюсер: Мартин Мелчер, Аарон Розенберг, Барни Розензвеиг

    Актеры
    Дорис Дэй, Ричард Харрис, Рей Уолстон, Джек Крушен, Эдвард Малхейр, Лилия Скала, Ирэн Тсу, Ларри Д. Манн, Морис Марсак, Майкл Романофф

    Описание

    В основе сюжета шпиономания, сфера деятельности — производство косметики. Главные герои Патрисия Фостер и Кристофер Уайт только и делают, что пытаются провести друг друга…

    Релиз от: Охрана (NNMCLUB)
    Продолжительность: 01: 37: 36
    Качество видео: BDRip
    Перевод: Многоголосый профессиональный, Первый канал
    Субтитры: Русские, английские
    Видео: AVC/H.264, 1024x432, ~2816 Kbps
    Аудио 1: AC3, 2 ch, 192 Kbps, 48.0 kHz – Русский
    Аудио 2: AC3, 2 ch, 192 Kbps, 48.0 kHz – Английский
    Общее
    Уникальный идентификатор : 183716447167391954912092561473499377341 (0x8A36802D1035392B8B48B2A967512EBD)
    Полное имя : B: DownloadsКаприз. 1967. NNMCLUB.mkv
    Формат : Matroska
    Версия формата : Version 4/Version 2
    Размер файла : 2, 18 Гбайт
    Продолжительность : 1 ч. 37 м.
    Общий поток : 3202 Кбит/сек
    Дата кодирования : UTC 2020-01-20 21: 47: 19
    Программа кодирования : mkvmerge v7.9.0 (\'Birds\') 64bit
    Библиотека кодирования : libebml v1.3.1 + libmatroska v1.4.2
    Видео
    Идентификатор : 1
    Формат : AVC
    Формат/Информация : Advanced Video Codec
    Профиль формата : High@L4.1
    Настройки формата : CABAC/12 Ref Frames
    Параметр CABAC формата : Да
    Параметр RefFrames формата : 12 кадров
    Идентификатор кодека : V_MPEG4/ISO/AVC
    Продолжительность : 1 ч. 37 м.
    Битрейт : 2816 Кбит/сек
    Ширина : 1024 пикселя
    Высота : 432 пикселя
    Соотношение сторон : 2, 40: 1
    Режим частоты кадров : Постоянный
    Частота кадров : 23, 976 (24000/1001) кадра/сек
    Цветовое пространство : YUV
    Субдискретизация насыщенности : 4: 2: 0
    Битовая глубина : 8 бит
    Тип развёртки : Прогрессивная
    Бит/(Пиксели*Кадры) : 0.266
    Размер потока : 1, 92 Гбайт (88%)
    Заголовок : Caprice
    Библиотека кодирования : x264 core 146 r2538 121396c
    Настройки программы : cabac=1/ref=12/deblock=1: -1: -1/analyse=0x3: 0x113/me=umh/subme=10/psy=1/psy_rd=1.00: 0.10/mixed_ref=1/me_range=32/chroma_me=1/trellis=2/8x8dct=1/cqm=0/deadzone=21, 11/fast_pskip=0/chroma_qp_offset=-3/threads=6/lookahead_threads=1/sliced_threads=0/nr=0/decimate=0/interlaced=0/bluray_compat=0/constrained_intra=0/bframes=7/b_pyramid=2/b_adapt=2/b_bias=0/direct=3/weightb=1/open_gop=0/weightp=2/keyint=250/keyint_min=25/scenecut=40/intra_refresh=0/rc_lookahead=60/rc=2pass/mbtree=1/bitrate=2816/ratetol=1.0/qcomp=0.60/qpmin=0/qpmax=69/qpstep=4/cplxblur=20.0/qblur=0.5/vbv_maxrate=14000/vbv_bufsize=14000/nal_hrd=none/filler=0/ip_ratio=1.40/aq=1: 1.00
    Язык : English
    Default : Да
    Forced : Нет
    Аудио #1
    Идентификатор : 2
    Формат : AC-3
    Формат/Информация : Audio Coding 3
    Идентификатор кодека : A_AC3
    Продолжительность : 1 ч. 37 м.
    Вид битрейта : Постоянный
    Битрейт : 192 Кбит/сек
    Каналы : 2 канала
    Расположение каналов : Front: L R
    Частота : 48, 0 КГц
    Частота кадров : 31, 250 кадров/сек (1536 SPF)
    Битовая глубина : 16 бит
    Метод сжатия : С потерями
    Размер потока : 134 Мбайт (6%)
    Заголовок : Многоголосый закадровый, Первый канал
    Язык : Russian
    ServiceKind/String : Complete Main
    Default : Да
    Forced : Нет
    Аудио #2
    Идентификатор : 3
    Формат : AC-3
    Формат/Информация : Audio Coding 3
    Идентификатор кодека : A_AC3
    Продолжительность : 1 ч. 37 м.
    Вид битрейта : Постоянный
    Битрейт : 192 Кбит/сек
    Каналы : 2 канала
    Расположение каналов : Front: L R
    Частота : 48, 0 КГц
    Частота кадров : 31, 250 кадров/сек (1536 SPF)
    Битовая глубина : 16 бит
    Метод сжатия : С потерями
    Размер потока : 134 Мбайт (6%)
    Заголовок : Английский
    Язык : English
    ServiceKind/String : Complete Main
    Default : Нет
    Forced : Нет
    Текст #1
    Идентификатор : 4
    Формат : UTF-8
    Идентификатор кодека : S_TEXT/UTF8
    Идентификатор кодека/Информация : UTF-8 Plain Text
    Продолжительность : 1 ч. 34 м.
    Битрейт : 117 бит/сек
    ElementCount : 1123
    Размер потока : 81, 4 Кбайт (0%)
    Заголовок : Full
    Язык : Russian
    Default : Нет
    Forced : Нет
    Текст #2
    Идентификатор : 5
    Формат : UTF-8
    Идентификатор кодека : S_TEXT/UTF8
    Идентификатор кодека/Информация : UTF-8 Plain Text
    Продолжительность : 1 ч. 36 м.
    Битрейт : 65 бит/сек
    ElementCount : 1247
    Размер потока : 46, 2 Кбайт (0%)
    Заголовок : Full
    Язык : English
    Default : Нет
    Forced : Нет

    Скриншоты для ознакомления




    Все одноименные релизы в Клубе
    Время раздачи: с 13: 00 до 01: 00 МСК, выходные круглосуточно (до появления первых 3-5 скачавших)

    Онлайн видео Каприз



    Каприз / Caprice (1967) BDRip [H.264] торрент скачать бесплатно
    Рейтинг →
     (голосов: 1, оценка 3/5, голосовать можно 1 раз )

    Другие торренты по теме:

  • Каприз / Caprice (1967) DVDRip [H.264]
  • Каприз / Caprice (2015) HDTV [H.264 / 1080i]
  • Каприз / Caprice (2015) WEB-DLRip
  • Каприз / Caprice (1967) BDRemux [H.264 / 1080p]


    • Комментарии (0):

      Информация

      Информация

        Посетители, находящиеся в группе Гости, не могут оставлять комментарии в данной новости.

        ↓ Меню




        ↓ Опрос

        Вы добавили сайт в закладки?
        Да
        Нет


        Популярное