.
Авторизация | Регистрация
bitok.xyz
Торрент скачать бесплатно Фильмы торрент скачать Багровое золото / Talaye sorkh / Crimson Gold (2003) DVDRip [H.264] [IR / RU, EN, FR Sub] торрент скачать бесплатно


    Багровое золото / Talaye sorkh / Crimson Gold (2003) DVDRip [H.264] [IR / RU, EN, FR Sub] торрент скачать бесплатно

    Дата: 27-01-2020, 05:00 | .torrent скачали: 0

    Багровое золото / Talaye sorkh / Crimson Gold (2003) DVDRip [H.264] [IR / RU, EN, FR Sub]Производство: Иран/Jafar Panahi Film Productions
    Жанр: Драма, Триллер
    Режиссер: Джафар Панахи

    Актеры
    Хусейн Эмадеддин, Камяр Шейси, Азита Райеи, Шахрам Вазири, Пуран Нахал, Эхсан Амани, Кавех Наджмабади

    Описание

    Однажды утром в ювелирном магазине происходит убийство и самоубийство. Это история оскорблённых чувств в мире социальной несправедливости. Когда Али показывает содержимое найденной сумки, Хусейн не может себе даже представить цену, указанную на квитанции за ожерелье. Он только знает, что его мизерной зарплаты не хватит, чтобы позволить такую роскошь. Работа развозчика пиццы позволяет ему в полной мере ощутить контраст между бедными и богатыми. Каждый вечер он бывает в тех районах, где никогда не будет жить и может лишь предполагать, что происходит за закрытыми дверями.
    Это история человека, который потерял контроль над собой, разрываясь между положением бедняка и желанием разбогатеть.

    Продолжительность: 01: 32: 20
    Качество видео: DVDRip
    Перевод: Отсутствует
    Язык озвучки: Фарси
    Субтитры: Русские, Английские, Французские
    Видео: AVC/H.264, 720x432, ~1600 Kbps
    Аудио: AC3, 2 ch, 192 Kbps - Фарси
    General
    Unique ID : 8913400700766044784207522346107831565 (0x6B4A89586C63E390F48E36C6E76850D)
    Complete name : /media/win/TORRENT/UPLOAD_TORRENTS/6arp0B0e_30L0T0_(Talaye sorkh)_(2003).mkv
    Format : Matroska
    Format version : Version 4
    File size : 1.16 GiB
    Duration : 1 h 32 min
    Overall bit rate : 1 795 kb/s
    Movie name : Talaye sorkh (Crimson Gold) 2003
    Encoded date : UTC 2020-01-19 13: 22: 57
    Writing application : HandBrake 1.3.1 2020010600
    Writing library : Lavf58.29.100
    ErrorDetectionType : Per level 1
    Video
    ID : 1
    Format : AVC
    Format/Info : Advanced Video Codec
    Format profile : Main@L4
    Format settings : CABAC/12 Ref Frames
    Format settings, CABAC : Yes
    Format settings, Reference frames : 12 frames
    Codec ID : V_MPEG4/ISO/AVC
    Duration : 1 h 32 min
    Bit rate : 1 600 kb/s
    Width : 720 pixels
    Height : 432 pixels
    Display aspect ratio : 5: 3
    Frame rate mode : Constant
    Frame rate : 23.976 (24000/1001) FPS
    Color space : YUV
    Chroma subsampling : 4: 2: 0
    Bit depth : 8 bits
    Scan type : Progressive
    Bits/(Pixel*Frame) : 0.215
    Stream size : 1.01 GiB (87%)
    Writing library : x264 core 159 r2991 1771b55
    Encoding settings : cabac=1/ref=12/deblock=1: 0: 0/analyse=0x1: 0x111/me=umh/subme=9/psy=1/psy_rd=1, 00: 0, 00/mixed_ref=1/me_range=24/chroma_me=1/trellis=1/8x8dct=0/cqm=0/deadzone=21, 11/fast_pskip=1/chroma_qp_offset=-2/threads=13/lookahead_threads=1/sliced_threads=0/nr=0/decimate=1/interlaced=0/bluray_compat=0/constrained_intra=0/bframes=6/b_pyramid=2/b_adapt=2/b_bias=0/direct=1/weightb=1/open_gop=0/weightp=1/keyint=240/keyint_min=24/scenecut=40/intra_refresh=0/rc_lookahead=30/rc=2pass/mbtree=1/bitrate=1600/ratetol=1, 0/qcomp=0, 60/qpmin=0/qpmax=69/qpstep=4/cplxblur=20, 0/qblur=0, 5/vbv_maxrate=20000/vbv_bufsize=25000/nal_hrd=none/filler=0/ip_ratio=1, 40/aq=1: 1, 00
    Default : Yes
    Forced : No
    Color range : Limited
    Color primaries : BT.601 NTSC
    Transfer characteristics : BT.709
    Matrix coefficients : BT.601
    DURATION : 01: 32: 19, 785000000
    Audio
    ID : 2
    Format : AC-3
    Format/Info : Audio Coding 3
    Commercial name : Dolby Digital
    Codec ID : A_AC3
    Duration : 1 h 32 min
    Bit rate mode : Constant
    Bit rate : 192 kb/s
    Channel(s) : 2 channels
    Channel layout : L R
    Sampling rate : 48.0 kHz
    Frame rate : 31.250 FPS (1536 SPF)
    Compression mode : Lossy
    Stream size : 127 MiB (11%)
    Title : Stereo
    Service kind : Complete Main
    Default : Yes
    Forced : No
    DURATION : 01: 32: 20, 480000000
    Text #1
    ID : 3
    Format : ASS
    Codec ID : S_TEXT/ASS
    Codec ID/Info : Advanced Sub Station Alpha
    Compression mode : Lossless
    Title : Bagrovoe_Zoloto_2003_RU
    Language : Russian
    Default : No
    Forced : No
    DURATION : 01: 30: 34, 040000000
    Text #2
    ID : 4
    Format : ASS
    Codec ID : S_TEXT/ASS
    Codec ID/Info : Advanced Sub Station Alpha
    Compression mode : Lossless
    Title : Bagrovoe_Zoloto_2003_EN
    Language : English
    Default : No
    Forced : No
    DURATION : 01: 30: 33, 040000000
    Text #3
    ID : 5
    Format : ASS
    Codec ID : S_TEXT/ASS
    Codec ID/Info : Advanced Sub Station Alpha
    Compression mode : Lossless
    Title : Bagrovoe_Zoloto_2003_FR
    Language : French
    Default : No
    Forced : No
    DURATION : 01: 30: 45, 100000000


    Онлайн видео Багровое золото



    Багровое золото / Talaye sorkh / Crimson Gold (2003) DVDRip [H.264] [IR / RU, EN, FR Sub] торрент скачать бесплатно
    Рейтинг →
     (голосов: 1, оценка 4/5, голосовать можно 1 раз )

    Другие торренты по теме:

  • Следствие вели... с Леонидом Каневским. Багровое новоселье (01.10.2016) SATRiр


    • Комментарии (0):

      Информация

      Информация

        Посетители, находящиеся в группе Гости, не могут оставлять комментарии в данной новости.

        ↓ Меню




        ↓ Опрос

        Вы добавили сайт в закладки?
        Да
        Нет


        Популярное