.
Авторизация | Регистрация
bitok.xyz
Торрент скачать бесплатно Фильмы торрент скачать Забегаловка / Diner (1982) WEB-DL [H.264 / 720p-LQ] торрент скачать бесплатно


    Забегаловка / Diner (1982) WEB-DL [H.264 / 720p-LQ] торрент скачать бесплатно

    Дата: 27-01-2020, 05:00 | .torrent скачали: 0

    Забегаловка / Diner (1982) WEB-DL [H.264 / 720p-LQ]Производство: США | Metro-Goldwyn-Mayer, SLM Production Group
    Жанр: мелодрама, комедия
    Режиссер: Барри Левинсон

    Актеры
    Стив Гуттенберг, Дэниел Стерн, Микки Рурк, Кевин Бейкон, Тим Дейли, Эллен Баркин, Пол Райзер, Кэтрин Даулинг, Майкл Такер, Джессика Джеймс

    Описание

    1959 год. Балтимор. Шестеро закадычных друзей, проводящих дни и ночи напролет в старомодной и дешевой забегаловке небольшого городка, задушевно беседуют о своем. Женщины, азартные игры, соленые анекдоты — вот далеко не полный перечень тем и откровений молодых людей, переваливших 20-летний рубеж, которым предстоит научиться справляться с проблемами взрослой жизни и попрощаться с юношеской беззаботностью.

    Возраст: 16+ (зрителям, достигшим 16 лет)
    Рейтинг MPAA: R (лицам до 17 лет обязательно присутствие взрослого)
    Продолжительность: 01: 49: 57
    Качество видео: WEB-DL
    Перевод: Двуголосый профессиональный, одноголосый
    Субтитры: Английские
    Видео: AVC/H.264, 1272x720 (16: 9), ~3867 kbps
    Аудио 1: AC3, 1 ch, 192 kbps - Русский (VO, Мазур)
    Аудио 2: AC3, 2 ch, 192 kbps - Русский (DVO, НТВ+)
    Аудио 3: AC3, 2 ch, 192 kbps - Английский
    General
    Unique ID : 218104039606976988871848952076623038356 (0xA4154F61DE1508F7A66FE2D2E52E4794)
    Complete name : D: Diner_1982_WEB-DL_720p.mkv
    Format : Matroska
    Format version : Version 2
    File size : 3.48 GiB
    Duration : 1 h 49 min
    Overall bit rate : 4 533 kb/s
    Encoded date : UTC 2013-08-30 16: 03: 50
    Writing application : mkvmerge v3.3.0 (\'Language\') built on Mar 24 2010 14: 59: 24
    Writing library : libebml v0.8.0 + libmatroska v0.9.0
    Video
    ID : 1
    Format : AVC
    Format/Info : Advanced Video Codec
    Format profile : High@L3.1
    Format settings : 2 Ref Frames
    Format settings, CABAC : No
    Format settings, ReFrames : 2 frames
    Codec ID : V_MPEG4/ISO/AVC
    Duration : 1 h 49 min
    Bit rate : 3 867 kb/s
    Width : 1 272 pixels
    Height : 720 pixels
    Display aspect ratio : 16: 9
    Frame rate mode : Constant
    Frame rate : 23.976 FPS
    Color space : YUV
    Chroma subsampling : 4: 2: 0
    Bit depth : 8 bits
    Scan type : Progressive
    Bits/(Pixel*Frame) : 0.176
    Stream size : 2.97 GiB (85%)
    Language : English
    Default : No
    Forced : No
    Color range : Limited
    Color primaries : BT.709
    Transfer characteristics : BT.709
    Matrix coefficients : BT.709
    Audio #1
    ID : 2
    Format : AC-3
    Format/Info : Audio Coding 3
    Commercial name : Dolby Digital
    Codec ID : A_AC3
    Duration : 1 h 49 min
    Bit rate mode : Constant
    Bit rate : 192 kb/s
    Channel(s) : 1 channel
    Channel layout : C
    Sampling rate : 48.0 kHz
    Frame rate : 31.250 FPS (1536 SPF)
    Bit depth : 16 bits
    Compression mode : Lossy
    Stream size : 151 MiB (4%)
    Title : AVO Мазур @ AC3 192 kbps
    Language : Russian
    Service kind : Complete Main
    Default : Yes
    Forced : No
    Audio #2
    ID : 3
    Format : AC-3
    Format/Info : Audio Coding 3
    Commercial name : Dolby Digital
    Codec ID : A_AC3
    Duration : 1 h 49 min
    Bit rate mode : Constant
    Bit rate : 192 kb/s
    Channel(s) : 2 channels
    Channel layout : L R
    Sampling rate : 48.0 kHz
    Frame rate : 31.250 FPS (1536 SPF)
    Bit depth : 16 bits
    Compression mode : Lossy
    Stream size : 151 MiB (4%)
    Title : MVO @ AC3 192 kbps
    Language : Russian
    Service kind : Complete Main
    Default : No
    Forced : No
    Audio #3
    ID : 4
    Format : AC-3
    Format/Info : Audio Coding 3
    Commercial name : Dolby Digital
    Codec ID : A_AC3
    Duration : 1 h 49 min
    Bit rate mode : Constant
    Bit rate : 192 kb/s
    Channel(s) : 2 channels
    Channel layout : L R
    Sampling rate : 48.0 kHz
    Frame rate : 31.250 FPS (1536 SPF)
    Bit depth : 16 bits
    Compression mode : Lossy
    Stream size : 151 MiB (4%)
    Title : Original @ AC3 192 kbps
    Language : English
    Service kind : Complete Main
    Default : No
    Forced : No
    Text
    ID : 5
    Format : UTF-8
    Codec ID : S_TEXT/UTF8
    Codec ID/Info : UTF-8 Plain Text
    Language : English
    Default : No
    Forced : No
    Menu
    00: 00: 00.000 : en: Retrieving Fenwick.
    00: 04: 32.000 : en: Diner-bound.
    00: 06: 27.000 : en: Roadside prank.
    00: 08: 42.000 : en: Makeout/sandwich.
    00: 12: 06.000 : en: Betting men.
    00: 16: 57.000 : en: Billy\'s home.
    00: 19: 44.000 : en: Wake up, Eddie.
    00: 24: 04.000 : en: Shrevie\'s TV...
    00: 26: 23.000 : en: The pool hall.
    00: 28: 03.000 : en: Getting disgusting...
    00: 33: 14.000 : en: Even with Willard.
    00: 35: 45.000 : en: The TV station.
    00: 37: 28.000 : en: ...you want it.
    00: 40: 34.000 : en: Menu\'s left side.
    00: 45: 48.000 : en: Jane Chisholm.
    00: 47: 39.000 : en: Barbara\'s news.
    00: 50: 07.000 : en: GE College Bowl.
    00: 52: 51.000 : en: Don\'t touch!
    00: 56: 32.000 : en: Comforting Betty.
    00: 58: 29.000 : en: You have a...
    01: 00: 14.000 : en: Seal analyzed.
    01: 01: 06.000 : en: Manger scene.
    01: 03: 40.000 : en: Behind bars.
    01: 05: 56.000 : en: Eddie\'s confession.
    01: 07: 57.000 : en: Their soap opera.
    01: 09: 51.000 : en: Rough stuff.
    01: 15: 51.000 : en: No sense of herself.
    01: 17: 08.000 : en: The football test.
    01: 20: 38.000 : en: Their date.
    01: 27: 54.000 : en: The move.
    01: 29: 39.000 : en: Paid in full.
    01: 31: 34.000 : en: Always a dreamer.
    01: 33: 11.000 : en: Picking up the beat.
    01: 37: 27.000 : en: Didn\'t you know her?
    01: 38: 54.000 : en: Wedding day.
    01: 43: 32.000 : en: A toast.
    01: 46: 11.000 : en: End Credits.

    Скриншоты для ознакомления





    Все одноименные релизы в Клубе
    Время раздачи: 24/7 (до появления первых 3-5 скачавших)

    Онлайн видео Забегаловка



    Забегаловка / Diner (1982) WEB-DL [H.264 / 720p-LQ] торрент скачать бесплатно
    Рейтинг →
     (голосов: 1, оценка 5/5, голосовать можно 1 раз )

    Другие торренты по теме:

  • Забегаловка / Diner (1982) DVDRip [H.264]
  • Забегаловка / Diner (1983) TVRip [H.264] [EN]


    • Комментарии (0):

      Информация

      Информация

        Посетители, находящиеся в группе Гости, не могут оставлять комментарии в данной новости.

        ↓ Меню




        ↓ Опрос

        Вы добавили сайт в закладки?
        Да
        Нет


        Популярное