.
Авторизация | Регистрация
bitok.xyz
Торрент скачать бесплатно Фильмы торрент скачать Ответ знает только ветер / Die Antwort kennt nur der Wind (1974) DVDRip [H.264] торрент скачать бесплатно


    Ответ знает только ветер / Die Antwort kennt nur der Wind (1974) DVDRip [H.264] торрент скачать бесплатно

    Дата: 27-01-2020, 05:00 | .torrent скачали: 0

    Ответ знает только ветер / Die Antwort kennt nur der Wind (1974) DVDRip [H.264]Производство: Германия (ФРГ), Франция/Paris-Cannes Productions, Roxy Films
    Жанр: Драма, Криминал
    Режиссер: Альфред Форер
    Продюсер: Лугги Вальдлайтнер, Жан Кершнер

    Актеры
    Морис Роне, Марта Келлер, Карин Дор, Раймон Пеллегрен, Вальтер Кохут, Шарлотта Керр, Херберт Флайшманн, Гюнтер Мак, Антон Диффринг, Ева Пфлуг

    Описание

    В Каннах взрывается яхта известного немецкого банкира. Сотрудник страховой компании Роберт Лукас отправляется расследовать причины катастрофы. В этом райском уголке он знакомится с миллионершей Хильдой, её служанкой Николь и художницей Анджелой.

    Релиз от: Охрана (NNMCLUB)
    Продолжительность: 01: 41: 38
    Качество видео: DVDRip
    Перевод: Дублированный, многоголосый профессиональный
    Субтитры: Отсутствуют
    Видео: AVC/H.264, 720x544, ~2050 Kbps
    Аудио 1: AC3, 2 ch, 192 Kbps, 48.0 kHz – Русский Dub, киностудия Мосфильм + вставки MVO Петербург 5-й канал
    Аудио 2: AC3, 2 ch, 192 Kbps, 48.0 kHz – Русский MVO, Петербург 5-й канал
    Аудио 3: AC3, 2 ch, 224 Kbps, 48.0 kHz – Немецкий
    Общее
    Уникальный идентификатор : 212270695794692924923155696547589037399 (0x9FB1D953C8AF7D44A4FA6919F6D89D57)
    Полное имя : B: DownloadsОтвет знает только ветер. 1974. NNMCLUB.mkv
    Формат : Matroska
    Версия формата : Version 4/Version 2
    Размер файла : 1, 89 Гбайт
    Продолжительность : 1 ч. 41 м.
    Общий поток : 2661 Кбит/сек
    Дата кодирования : UTC 2020-01-18 06: 25: 58
    Программа кодирования : mkvmerge v7.9.0 (\'Birds\') 64bit
    Библиотека кодирования : libebml v1.3.1 + libmatroska v1.4.2
    Видео
    Идентификатор : 1
    Формат : AVC
    Формат/Информация : Advanced Video Codec
    Профиль формата : High@L4.1
    Настройки формата : CABAC/12 Ref Frames
    Параметр CABAC формата : Да
    Параметр RefFrames формата : 12 кадров
    Идентификатор кодека : V_MPEG4/ISO/AVC
    Продолжительность : 1 ч. 41 м.
    Битрейт : 2050 Кбит/сек
    Ширина : 720 пикселей
    Высота : 544 пикселя
    Соотношение сторон : 4: 3
    Режим частоты кадров : Постоянный
    Частота кадров : 25, 000 кадров/сек
    Цветовое пространство : YUV
    Субдискретизация насыщенности : 4: 2: 0
    Битовая глубина : 8 бит
    Тип развёртки : Прогрессивная
    Бит/(Пиксели*Кадры) : 0.209
    Размер потока : 1, 46 Гбайт (77%)
    Заголовок : Die Antwort kennt nur der Wind
    Библиотека кодирования : x264 core 146 r2538 121396c
    Настройки программы : cabac=1/ref=12/deblock=1: -1: -1/analyse=0x3: 0x113/me=umh/subme=10/psy=1/psy_rd=1.00: 0.10/mixed_ref=1/me_range=32/chroma_me=1/trellis=2/8x8dct=1/cqm=0/deadzone=21, 11/fast_pskip=0/chroma_qp_offset=-3/threads=6/lookahead_threads=1/sliced_threads=0/nr=0/decimate=0/interlaced=0/bluray_compat=0/constrained_intra=0/bframes=7/b_pyramid=2/b_adapt=2/b_bias=0/direct=3/weightb=1/open_gop=0/weightp=2/keyint=250/keyint_min=25/scenecut=40/intra_refresh=0/rc_lookahead=60/rc=2pass/mbtree=1/bitrate=2050/ratetol=1.0/qcomp=0.60/qpmin=0/qpmax=69/qpstep=4/cplxblur=20.0/qblur=0.5/vbv_maxrate=14000/vbv_bufsize=14000/nal_hrd=none/filler=0/ip_ratio=1.40/aq=1: 1.00
    Язык : German
    Default : Да
    Forced : Нет
    Аудио #1
    Идентификатор : 2
    Формат : AC-3
    Формат/Информация : Audio Coding 3
    Идентификатор кодека : A_AC3
    Продолжительность : 1 ч. 41 м.
    Вид битрейта : Постоянный
    Битрейт : 192 Кбит/сек
    Каналы : 2 канала
    Расположение каналов : Front: L R
    Частота : 48, 0 КГц
    Частота кадров : 31, 250 кадров/сек (1536 SPF)
    Битовая глубина : 16 бит
    Метод сжатия : С потерями
    Размер потока : 140 Мбайт (7%)
    Заголовок : Дублированный
    Язык : Russian
    ServiceKind/String : Complete Main
    Default : Да
    Forced : Нет
    Аудио #2
    Идентификатор : 3
    Формат : AC-3
    Формат/Информация : Audio Coding 3
    Идентификатор кодека : A_AC3
    Продолжительность : 1 ч. 41 м.
    Вид битрейта : Постоянный
    Битрейт : 192 Кбит/сек
    Каналы : 2 канала
    Расположение каналов : Front: L R
    Частота : 48, 0 КГц
    Частота кадров : 31, 250 кадров/сек (1536 SPF)
    Битовая глубина : 16 бит
    Метод сжатия : С потерями
    Размер потока : 140 Мбайт (7%)
    Заголовок : Многоголосый закадровый, Петербург 5-й канал
    Язык : Russian
    ServiceKind/String : Complete Main
    Default : Нет
    Forced : Нет
    Аудио #3
    Идентификатор : 4
    Формат : AC-3
    Формат/Информация : Audio Coding 3
    Идентификатор кодека : A_AC3
    Продолжительность : 1 ч. 41 м.
    Вид битрейта : Постоянный
    Битрейт : 224 Кбит/сек
    Каналы : 2 канала
    Расположение каналов : Front: L R
    Частота : 48, 0 КГц
    Частота кадров : 31, 250 кадров/сек (1536 SPF)
    Битовая глубина : 16 бит
    Метод сжатия : С потерями
    Размер потока : 163 Мбайт (8%)
    Заголовок : Немецкий
    Язык : German
    ServiceKind/String : Complete Main
    Default : Нет
    Forced : Нет

    Скриншоты для ознакомления




    Все одноименные релизы в Клубе
    Время раздачи: с 13: 00 до 01: 00 МСК, выходные круглосуточно (до появления первых 3-5 скачавших)

    Онлайн видео Ответ знает только ветер



    Ответ знает только ветер / Die Antwort kennt nur der Wind (1974) DVDRip [H.264] торрент скачать бесплатно
    Рейтинг →
     (голосов: 1, оценка 5/5, голосовать можно 1 раз )

    Другие торренты по теме:

  • Ответ знает только ветер / Die Antwort kennt nur der Wind (1974) DVDRip скачать через торрент бесплатно


    • Комментарии (0):

      Информация

      Информация

        Посетители, находящиеся в группе Гости, не могут оставлять комментарии в данной новости.

        ↓ Меню




        ↓ Опрос

        Вы добавили сайт в закладки?
        Да
        Нет


        Популярное